Вы используете незарегистрированную версию компонента "Вкладки"!

Поиск

(Avant-Garde / Structured Improvisation / Modern Composition) Andrew Raffo Dewar - Six Lines of Transformation / Music for Eight Bamboo Flutes - 2008, FLAC (image+.cue), lossless

(Avant-Garde / Structured Improvisation / Modern Composition) Andrew Raffo Dewar - Six Lines of Transformation / Music for Eight Bamboo Flutes - 2008, FLAC (image+.cue), lossless
Треклист:
Andrew Raffo Dewar - Six Lines of Transformation / Music for Eight Bamboo Flutes

Жанр: Avant-Garde / Structured Improvisation / Modern Composition
Год выпуска диска: 2008
Производитель диска: Porter Records PORT4006; USA
Аудио кодек: FLAC
Тип рипа: image+.cue
Битрейт аудио: lossless
Продолжительность: 1:10:31
Six Lines of Transformation (2007)
Dedicated to Aung San Suu Kyi
1. I
2. II
3. III
4. IV
Matt Bauder: bass clarinet
Jennifer Caputo: marimba, gongs, cymbal, bodhran
Andrew Lafkas: contrabass
Jane Rigler: quarter-tone flute
Matthew Welch: conductor
Nate Wooley: trumpet
Katherine Young: bassoon
Recorded at Systems Two, Brooklyn New York on 6 January 2008.
Music for Eight Bamboo Flutes (2004)
Dedicated to Inson Wongsam
5. I
6. II
7. III
8. IV
Nick Brooke
Andrew Raffo Dewar
Pande Made Sukerta
Andrew McGraw
Chris Miller
A.L. Suwardi
I. Dewa Nyoman Supenida
Ida Bagus Widnyana
Recorded in Peliatan, Bali, Indonesia on 25 August 2004.
 
EAC Report
Exact Audio Copy V0.99 prebeta 4 from 23. January 2008
EAC extraction logfile from 31. July 2010, 13:30
Andrew Raffo Dewar / Six Lines of Transformation / Music for Eight Bamboo Flutes
Used drive : TSSTcorpCD/DVDW SH-S182M Adapter: 2 ID: 1
Read mode : Secure
Utilize accurate stream : Yes
Defeat audio cache : Yes
Make use of C2 pointers : No
Read offset correction : 6
Overread into Lead-In and Lead-Out : No
Fill up missing offset samples with silence : Yes
Delete leading and trailing silent blocks : No
Null samples used in CRC calculations : Yes
Used interface : Installed external ASPI interface
Used output format : User Defined Encoder
Selected bitrate : 1024 kBit/s
Quality : High
Add ID3 tag : No
Command line compressor : C:\Program Files\Exact Audio Copy\Flac\flac.exe
Additional command line options : -6 -V -T "ARTIST=%a" -T "TITLE=%t" -T "ALBUM=%g" -T "DATE=%y" -T "TRACKNUMBER=%n" -T "GENRE=%m" -T "COMMENT=EAC FLAC -6" %s
TOC of the extracted CD
Track | Start | Length | Start sector | End sector
---------------------------------------------------------
1 | 0:00.00 | 7:33.40 | 0 | 34014
2 | 7:33.40 | 7:08.73 | 34015 | 66187
3 | 14:42.38 | 7:10.33 | 66188 | 98470
4 | 21:52.71 | 8:12.15 | 98471 | 135385
5 | 30:05.11 | 10:57.20 | 135386 | 184680
6 | 41:02.31 | 10:43.13 | 184681 | 232918
7 | 51:45.44 | 9:35.63 | 232919 | 276106
8 | 61:21.32 | 9:10.04 | 276107 | 317360
Range status and errors
Selected range
Filename C:\Users\Igor\Music\eac\Andrew Raffo Dewar - Six Lines of Transformation.wav
Peak level 100.0 %
Range quality 100.0 %
Test CRC 7D998DAA
Copy CRC 7D998DAA
Copy OK
No errors occurred
AccurateRip summary
Track 1 accurately ripped (confidence 1) [1AC4FC91]
Track 2 accurately ripped (confidence 1) [D8C48FCB]
Track 3 accurately ripped (confidence 1) [A90410A2]
Track 4 accurately ripped (confidence 1) [68EF4A3F]
Track 5 accurately ripped (confidence 1) [6F737E23]
Track 6 accurately ripped (confidence 1) [CABE8560]
Track 7 accurately ripped (confidence 1) [377CE6F7]
Track 8 accurately ripped (confidence 1) [CC91F058]
All tracks accurately ripped
End of status report

рип собственный
По всем вопросам пишите личное сообщение пользователю M0p94ok.
01:43
149
Нет комментариев. Ваш будет первым!