Вы используете незарегистрированную версию компонента "Вкладки"!

Поиск

(Modern Creative, Jazz Bass) Enzo Pietropaoli - Orange Park - 2002, FLAC (tracks+.cue), lossless

(Modern Creative, Jazz Bass) Enzo Pietropaoli - Orange Park - 2002, FLAC (tracks+.cue), lossless
Треклист:
Enzo Pietropaoli - Orange Park
Жанр: Jazz Bass
Год выпуска диска: 2002
Производитель диска: Duck Records (Italy)
Аудио кодек: FLAC
Тип рипа: tracks+.cue
Битрейт аудио: lossless
Трэклист:
1. Orange Park 6:37
2. Ramon 7:02
3. Reverse Bop 4:17
4. Hullo Bolinas 2:21
5. La Piazza 9:01
6. Good Bye Chet 4:55
7. Dogs 6:12
 
скрытый текст
Exact Audio Copy V0.99 prebeta 3 from 28. July 2007
EAC extraction logfile from 20. February 2008, 20:05
enzo pietropaoli / orange park
Used drive : HL-DT-STDVDRRW GSA-H20L Adapter: 5 ID: 0
Read mode : Secure
Utilize accurate stream : Yes
Defeat audio cache : Yes
Make use of C2 pointers : No
Read offset correction : 102
Overread into Lead-In and Lead-Out : No
Fill up missing offset samples with silence : Yes
Delete leading and trailing silent blocks : No
Null samples used in CRC calculations : Yes
Used interface : Installed external ASPI interface
Gap handling : Appended to previous track
Used output format : User Defined Encoder
Selected bitrate : 1024 kBit/s
Quality : High
Add ID3 tag : No
Command line compressor : C:\Programmi\Exact Audio Copy\FLAC\FLAC.EXE
Additional command line options : -8 -V -T "ARTIST=%a" -T "TITLE=%t" -T "ALBUM=%g" -T "DATE=%y" -T "TRACKNUMBER=%n" -T "GENRE=%m" -T "COMMENT=%e" %s -o %d
TOC of the extracted CD
Track | Start | Length | Start sector | End sector
---------------------------------------------------------
1 | 0:00.00 | 6:36.74 | 0 | 29773
2 | 6:36.74 | 7:01.74 | 29774 | 61422
3 | 13:38.73 | 4:20.74 | 61423 | 80996
4 | 17:59.72 | 2:20.39 | 80997 | 91535
5 | 20:20.36 | 9:06.35 | 91536 | 132520
6 | 29:26.71 | 4:54.74 | 132521 | 154644
7 | 34:21.70 | 6:11.74 | 154645 | 182543
Track 1
Filename C:\Documents and Settings\HP_Proprietario\Desktop\in costruzione\01. enzo pietropaoli - orange park.wav
Pre-gap length 0:00:02.00
Peak level 94.5 %
Track quality 100.0 %
Test CRC 33E0C3AE
Copy CRC 33E0C3AE
Track not present in AccurateRip database
Copy OK
Track 2
Filename C:\Documents and Settings\HP_Proprietario\Desktop\in costruzione\02. enzo pietropaoli - ramon.wav
Pre-gap length 0:00:00.01
Peak level 84.1 %
Track quality 100.0 %
Test CRC 7340719B
Copy CRC 7340719B
Track not present in AccurateRip database
Copy OK
Track 3
Filename C:\Documents and Settings\HP_Proprietario\Desktop\in costruzione\03. enzo pietropaoli - reverse bop.wav
Pre-gap length 0:00:00.01
Peak level 100.0 %
Track quality 99.9 %
Test CRC C48E2259
Copy CRC C48E2259
Track not present in AccurateRip database
Copy OK
Track 4
Filename C:\Documents and Settings\HP_Proprietario\Desktop\in costruzione\04. enzo pietropaoli - hullo bolinas.wav
Pre-gap length 0:00:00.01
Peak level 64.2 %
Track quality 100.0 %
Test CRC 43D8B2F0
Copy CRC 43D8B2F0
Track not present in AccurateRip database
Copy OK
Track 5
Filename C:\Documents and Settings\HP_Proprietario\Desktop\in costruzione\05. enzo pietropaoli - la piazza.wav
Pre-gap length 0:00:00.01
Peak level 83.1 %
Track quality 100.0 %
Test CRC 7D22D9BE
Copy CRC 7D22D9BE
Track not present in AccurateRip database
Copy OK
Track 6
Filename C:\Documents and Settings\HP_Proprietario\Desktop\in costruzione\06. enzo pietropaoli - good bye chet.wav
Pre-gap length 0:00:00.01
Peak level 72.7 %
Track quality 100.0 %
Test CRC 87C2C4BF
Copy CRC 87C2C4BF
Track not present in AccurateRip database
Copy OK
Track 7
Filename C:\Documents and Settings\HP_Proprietario\Desktop\in costruzione\07. enzo pietropaoli - dogs.wav
Pre-gap length 0:00:00.01
Peak level 99.9 %
Track quality 100.0 %
Test CRC A3C584CB
Copy CRC A3C584CB
Track not present in AccurateRip database
Copy OK
None of the tracks are present in the AccurateRip database
No errors occurred
End of status report
Any questions -> support@pro-jazz.com. По всем вопросам пишите -> support@pro-jazz.com
11:17
137
Нет комментариев. Ваш будет первым!