Вы используете незарегистрированную версию компонента "Вкладки"!

Поиск

(jazz, modern creative) Jacques di Donato, Louis Sclavis, Armand Angster - Trio de Clarinette 1990, FLAC (tracks+.cue), lossless

Треклист:


Jacques di Donato, Louis Sclavis, Armand Angster
Trio de Clarinette
Жанр: jazz, modern creative
Год выпуска:1990
Формат: FLAC (tracks+.cue)
Битрейт аудио: lossless
Продолжительность
Источник: ed2k

tracks

1 Berliner Suite, Pt. 1 Sclavis 9:13
2 Berliner Suite, Pt. 2/Martok Sclavis 18:42
3 Domaines Boulez 7:00
4 Berliner Suite, Pt. 3/Debora Angster 8:00
5 Trilles Di Donato 8:22
6 Intineraire Bis Angster 4:59
7 Berliner Suite, Pt. 5 Di Donato, Slavis 2:10
8 Clarinettes Sclavis 2:37


 
logfile
EAC extraction logfile from 17. September 2008, 18:38 for CD
Jacques di Donato, Louis Sclavis, Armand Angster / Trio de Clarinette-Live
Used drive : HL-DT-STDVDRAM GSA-4163B Adapter: 3 ID: 1
Read mode : Secure with NO C2, accurate stream, disable cache
Read offset correction : 667
Overread into Lead-In and Lead-Out : No
Used output format : Internal WAV Routines
44.100 Hz; 16 Bit; Stereo
Other options :
Fill up missing offset samples with silence : Yes
Delete leading and trailing silent blocks : No
Installed external ASPI interface
Track 1
Filename 01 - Jacques di Donato, Louis Sclavis, Armand Angster - Berliner Suite Part 1.wav
Peak level 82.3 %
Track quality 100.0 %
Copy CRC D41318D3
Copy OK
Track 2
Filename 02 - Jacques di Donato, Louis Sclavis, Armand Angster - Berliner Suite Part 2 - Martok.wav
Peak level 76.2 %
Track quality 100.0 %
Copy CRC CEDC8710
Copy OK
Track 3
Filename 03 - Jacques di Donato, Louis Sclavis, Armand Angster - Domaines.wav
Peak level 85.5 %
Track quality 100.0 %
Copy CRC F353F8FC
Copy OK
Track 4
Filename 04 - Jacques di Donato, Louis Sclavis, Armand Angster - Berliner Suite Part 3 - Debora.wav
Peak level 77.5 %
Track quality 100.0 %
Copy CRC CEE6DCBC
Copy OK
Track 5
Filename 05 - Jacques di Donato, Louis Sclavis, Armand Angster - Berliner Suite Part 4 - Trilles.wav
Peak level 65.2 %
Track quality 100.0 %
Copy CRC 1DBF6096
Copy OK
Track 6
Filename 06 - Jacques di Donato, Louis Sclavis, Armand Angster - Berliner Suite Part 4 - Intinйraire Bis.wav
Peak level 50.3 %
Track quality 99.6 %
Copy CRC 1BF63B89
Copy OK
Track 7
Filename 07 - Jacques di Donato, Louis Sclavis, Armand Angster - Berliner Suite Part 5 -Impromptu.wav
Suspicious position 0:01:38 - 0:01:39
Peak level 52.9 %
Track quality 98.9 %
Copy CRC E6305F6C
Copy finished
Track 8
Filename 08 - Jacques di Donato, Louis Sclavis, Armand Angster - Berliner suite Part 5 - Clarinettes.wav
Peak level 62.2 %
Track quality 99.9 %
Copy CRC 3FA92D26
Copy OK
There were errors
End of status report

 
.cue
REM DISCID 790E5308
REM COMMENT ExactAudioCopy v0.95b3
PERFORMER "Jacques di Donato, Louis Sclavis, Armand Angster"
TITLE "Trio de Clarinettes"
FILE "01 - Jacques di Donato, Louis Sclavis, Armand Angster - Berliner Suite Part 1.wav" WAVE
TRACK 01 AUDIO
TITLE "Berliner Suite Part 1"
INDEX 01 00:00:00
FILE "02 - Jacques di Donato, Louis Sclavis, Armand Angster - Berliner Suite Part 2 - Martok.wav" WAVE
TRACK 02 AUDIO
TITLE "Berliner Suite Part 2 - Martok"
INDEX 01 00:00:00
FILE "03 - Jacques di Donato, Louis Sclavis, Armand Angster - Domaines.wav" WAVE
TRACK 03 AUDIO
TITLE "Domaines"
INDEX 01 00:00:00
FILE "04 - Jacques di Donato, Louis Sclavis, Armand Angster - Berliner Suite Part 3 - Debora.wav" WAVE
TRACK 04 AUDIO
TITLE "Berliner Suite Part 3 - Debora"
INDEX 01 00:00:00
FILE "05 - Jacques di Donato, Louis Sclavis, Armand Angster - Berliner Suite Part 4 - Trilles.wav" WAVE
TRACK 05 AUDIO
TITLE "Berliner Suite Part 4 - Trilles"
INDEX 01 00:00:00
FILE "06 - Jacques di Donato, Louis Sclavis, Armand Angster - Berliner Suite Part 4 - Intinйraire Bis.wav" WAVE
TRACK 06 AUDIO
TITLE "Berliner Suite Part 4 - Intinйraire Bis"
INDEX 01 00:00:00
FILE "07 - Jacques di Donato, Louis Sclavis, Armand Angster - Berliner Suite Part 5 -Impromptu.wav" WAVE
TRACK 07 AUDIO
TITLE "Berliner Suite Part 5 -Impromptu"
INDEX 01 00:00:00
FILE "08 - Jacques di Donato, Louis Sclavis, Armand Angster - Berliner suite Part 5 - Clarinettes.wav" WAVE
TRACK 08 AUDIO
TITLE "Berliner suite Part 5 - Clarinettes"
INDEX 01 00:00:00
другие релизы
Any questions -> support@pro-jazz.com. По всем вопросам пишите -> support@pro-jazz.com
11:18
150
Нет комментариев. Ваш будет первым!