Вы используете незарегистрированную версию компонента "Вкладки"!

Поиск

(Modern Creative) Giovanni Mirabassi - Dal Vivo! - 2001, FLAC (tracks+.cue), lossless

(Modern Creative) Giovanni Mirabassi - Dal Vivo! - 2001, FLAC (tracks+.cue), lossless
Треклист:
Giovanni Mirabassi - Dal Vivo!
Жанр: Modern Creative
Страна-производитель диска: Франция
Год издания: 2001
Издатель (лейбл): Sketch
Номер по каталогу: SKE 333021
Аудиокодек: FLAC (*.flac)
Тип рипа: tracks+.cue
Битрейт аудио: lossless
Продолжительность: 65:24
Источник (релизер): emule
Наличие сканов в содержимом раздачи: да
Треклист:
01. Jean-Paul Chez Les Anges (Mirabassi) - 9:47
02. Place De La Mairie (Mirabassi) - 6:53
03. 28, Rue Manin (Mirabassi) - 6:20
04. Des Jours Meilleurs (Mirabassi) - 8:08
05. Requiem (Mirabassi) - 6:01
06. Memento Mores (Mirabassi) - 6:50
07. Cafe Francais (Ortega-Carrasco) - 10:59
08. El Pueblo Unido Jamas Sera Vencido (Mirabassi) - 10:26
Состав:
Giovanni Mirabassi - piano
Daniele Mencarelli - bass
Louis Moutin - drums
Recorded live at the "Duc des Lombards", Paris on November 2, 2001.
 
Лог создания рипа
Exact Audio Copy V0.99 prebeta 4 from 23. January 2008
EAC extraction logfile from 16. June 2010, 10:15
Giovanni Mirabassi / DAL VIVO!
Used drive : HL-DT-STDVD-ROM GDR8161B Adapter: 0 ID: 1
Read mode : Secure
Utilize accurate stream : Yes
Defeat audio cache : Yes
Make use of C2 pointers : No
Read offset correction : 102
Overread into Lead-In and Lead-Out : No
Fill up missing offset samples with silence : Yes
Delete leading and trailing silent blocks : No
Null samples used in CRC calculations : Yes
Used interface : Native Win32 interface for Win NT & 2000
Gap handling : Appended to previous track
Used output format : User Defined Encoder
Selected bitrate : 768 kBit/s
Quality : High
Add ID3 tag : No
Command line compressor : C:\Program Files\Exact Audio Copy\FLAC\FLAC.EXE
Additional command line options : -8 -V -T "ARTIST=%a" -T "TITLE=%t" -T "ALBUM=%g" -T "DATE=%y" -T "TRACKNUMBER=%n" -T "GENRE=%m" -T "COMMENT=EAC FLAC -8" %s
TOC of the extracted CD
Track | Start | Length | Start sector | End sector
---------------------------------------------------------
1 | 0:00.00 | 9:47.07 | 0 | 44031
2 | 9:47.07 | 6:53.18 | 44032 | 75024
3 | 16:40.25 | 6:20.27 | 75025 | 103551
4 | 23:00.52 | 8:08.03 | 103552 | 140154
5 | 31:08.55 | 6:00.52 | 140155 | 167206
6 | 37:09.32 | 6:49.55 | 167207 | 197936
7 | 43:59.12 | 10:58.38 | 197937 | 247324
8 | 54:57.50 | 10:26.12 | 247325 | 294286
Track 1
Filename D:\UPload\Giovanni Mirabassi - DAL VIVO!\01 - Jean-Paul Chez Les Anges.wav
Pre-gap length 0:00:02.00
Peak level 99.7 %
Track quality 99.9 %
Test CRC B311762D
Copy CRC B311762D
Accurately ripped (confidence 3) [BD8F5D49]
Copy OK
Track 2
Filename D:\UPload\Giovanni Mirabassi - DAL VIVO!\02 - Place De La Mairie.wav
Peak level 100.0 %
Track quality 100.0 %
Test CRC 4D3EAC78
Copy CRC 4D3EAC78
Accurately ripped (confidence 3) [A9212A1A]
Copy OK
Track 3
Filename D:\UPload\Giovanni Mirabassi - DAL VIVO!\03 - 28, Rue Manin.wav
Peak level 100.0 %
Track quality 100.0 %
Test CRC 4050F823
Copy CRC 4050F823
Accurately ripped (confidence 3) [4F3F5142]
Copy OK
Track 4
Filename D:\UPload\Giovanni Mirabassi - DAL VIVO!\04 - Des Jours Meilleurs.wav
Peak level 100.0 %
Track quality 100.0 %
Test CRC 580DA06C
Copy CRC 580DA06C
Accurately ripped (confidence 3) [B5FD4308]
Copy OK
Track 5
Filename D:\UPload\Giovanni Mirabassi - DAL VIVO!\05 - Requiem.wav
Peak level 99.9 %
Track quality 100.0 %
Test CRC 4AF6C8E0
Copy CRC 4AF6C8E0
Accurately ripped (confidence 3) [1A7005CB]
Copy OK
Track 6
Filename D:\UPload\Giovanni Mirabassi - DAL VIVO!\06 - Memento Mores.wav
Peak level 99.3 %
Track quality 100.0 %
Test CRC 642D9223
Copy CRC 642D9223
Accurately ripped (confidence 3) [7F33EF87]
Copy OK
Track 7
Filename D:\UPload\Giovanni Mirabassi - DAL VIVO!\07 - Cafe Francais.wav
Peak level 100.0 %
Track quality 100.0 %
Test CRC 337F8715
Copy CRC 337F8715
Accurately ripped (confidence 3) [F7C79CFC]
Copy OK
Track 8
Filename D:\UPload\Giovanni Mirabassi - DAL VIVO!\08 - El Pueblo Unido Jamas Sera Vencido.wav
Peak level 93.0 %
Track quality 100.0 %
Test CRC 659988B6
Copy CRC 659988B6
Accurately ripped (confidence 3) [1CC9D4BD]
Copy OK
All tracks accurately ripped
No errors occurred
End of status report
 
Содержание индексной карты (.CUE)
REM GENRE Jazz
REM DATE 2001
REM DISCID 650F5308
REM COMMENT "ExactAudioCopy v0.99pb4"
PERFORMER "Giovanni Mirabassi"
TITLE "DAL VIVO!"
FILE "01 - Jean-Paul Chez Les Anges.wav" WAVE
TRACK 01 AUDIO
TITLE "Jean-Paul Chez Les Anges"
PERFORMER "Giovanni Mirabassi"
INDEX 01 00:00:00
FILE "02 - Place De La Mairie.wav" WAVE
TRACK 02 AUDIO
TITLE "Place De La Mairie"
PERFORMER "Giovanni Mirabassi"
INDEX 01 00:00:00
FILE "03 - 28, Rue Manin.wav" WAVE
TRACK 03 AUDIO
TITLE "28, Rue Manin"
PERFORMER "Giovanni Mirabassi"
INDEX 01 00:00:00
FILE "04 - Des Jours Meilleurs.wav" WAVE
TRACK 04 AUDIO
TITLE "Des Jours Meilleurs"
PERFORMER "Giovanni Mirabassi"
INDEX 01 00:00:00
FILE "05 - Requiem.wav" WAVE
TRACK 05 AUDIO
TITLE "Requiem"
PERFORMER "Giovanni Mirabassi"
INDEX 01 00:00:00
FILE "06 - Memento Mores.wav" WAVE
TRACK 06 AUDIO
TITLE "Memento Mores"
PERFORMER "Giovanni Mirabassi"
INDEX 01 00:00:00
FILE "07 - Cafe Francais.wav" WAVE
TRACK 07 AUDIO
TITLE "Cafe Francais"
PERFORMER "Giovanni Mirabassi"
INDEX 01 00:00:00
FILE "08 - El Pueblo Unido Jamas Sera Vencido.wav" WAVE
TRACK 08 AUDIO
TITLE "El Pueblo Unido Jamas Sera Vencido"
PERFORMER "Giovanni Mirabassi"
INDEX 01 00:00:00
 
Отчет CUETools
[CUETools log; Date: 09.10.2013 20:53:02; Version: 2.1.4]
[CTDB TOCID: LZrrH.7czSzGgTA2NQYYMyEVeeY-] found.
Track | CTDB Status
1 | (3/3) Accurately ripped
2 | (3/3) Accurately ripped
3 | (3/3) Accurately ripped
4 | (3/3) Accurately ripped
5 | (3/3) Accurately ripped
6 | (3/3) Accurately ripped
7 | (3/3) Accurately ripped
8 | (3/3) Accurately ripped
[AccurateRip ID: 00135f10-0080d8cb-650f5308] found.
Track [ CRC | V2 ] Status
01 [bd8f5d49|57a43195] (06+08/14) Accurately ripped
02 [a9212a1a|5badcc32] (06+08/14) Accurately ripped
03 [4f3f5142|89269a08] (06+08/14) Accurately ripped
04 [b5fd4308|d4ae339c] (06+08/14) Accurately ripped
05 [1a7005cb|6eb89295] (06+08/14) Accurately ripped
06 [7f33ef87|add67404] (06+08/14) Accurately ripped
07 [f7c79cfc|25e02c52] (06+07/13) Accurately ripped
08 [1cc9d4bd|d5fa1110] (06+08/14) Accurately ripped
Track Peak [ CRC32 ] [W/O NULL] [ LOG ]
-- 100,0 [8D9EE701] [F8E2BEDF]
01 99,7 [B311762D] [72177656] CRC32
02 100,0 [4D3EAC78] [0CCEACC1] CRC32
03 100,0 [4050F823] [9A468223] CRC32
04 100,0 [580DA06C] [C44AC669] CRC32
05 99,9 [4AF6C8E0] [6504C277] CRC32
06 99,3 [642D9223] [1ABE130A] CRC32
07 100,0 [337F8715] [9FCF53F0] CRC32
08 93,0 [659988B6] [EF4C2550] CRC32
 
Об альбоме (сборнике)
Second album by the trio Architectures (G. Mirabassi, D. Mencarelli, L Moutin). Live, recorded at the Duc des Lombards, on 2001 November 2nd, for France Musiques. Edited in Japan, then in Europe (Italy, Belgium…). « Collector » in France. Previous songs we never grow tired of ("Place de la mairie", "Des jours meilleurs", "Memento mores…"). Haunting harmonic repeats ("Jean-paul chez les anges"). And a magnificent unison of the piano, the bass and the drums which progress together in on same rhythmical pace… in "El pueblo unido jamas sera vencido".
-- Annie Staricky
По всем вопросам пишите личное сообщение пользователю M0p94ok.
18:49
143
Нет комментариев. Ваш будет первым!