Вы используете незарегистрированную версию компонента "Вкладки"!

Поиск

(Avant-Garde, Sound Aspects) Jason Hwang (with Geoffrey Gordon, Mark Dresser, and J. D. Parran, Ned Rothenberg, Wilson Moorman) - Unfolding Stone - 1990, FLAC (tracks+.cue), lossless

(Avant-Garde, Sound Aspects) Jason Hwang (with Geoffrey Gordon, Mark Dresser, and J. D. Parran, Ned Rothenberg, Wilson Moorman) - Unfolding Stone - 1990, FLAC (tracks+.cue), lossless
Треклист:
Jason Hwang / Unfolding Stone
Жанр: Avant-Garde, Sound Aspects
Страна-производитель диска: Germany
Год издания: 1990
Издатель (лейбл): Sound Aspects
Номер по каталогу: SAS CD 041
Аудиокодек: FLAC (*.flac)
Тип рипа: tracks+.cue
Битрейт аудио: lossless
Продолжительность: 42:50
Источник (релизер): Max Monteiro
Наличие сканов в содержимом раздачи: да
Треклист:
1. Mizu (Water) 5:35
2. Edge of Elysium 9:24
3. Tsuzuriori (Tapestry) 5:15
4. Cloud Call 5:30
5. Solitude 6:55
6. Unfolding Stone* 10:11
Originally composed for « Source », an animation film created by the late Franklin Backus, this music is a tribute to his memory.
All tunes by Jason Hwang.
Recording July 31 and August 1st, 1989 at Chrystal Sound Recording, New York City, except « Unfolding Stone » recorded at Inner Ear Recording, New York.
Jason Hwang – Violin
Geoffrey Gordon – Drums, Percussion
Mark Dresser – String Bass
J. D. Parran* – Flute
Ned Rothenberg* – Flute
Wilson Moorman* – Vibes, Marimba
 
Лог создания рипа
Exact Audio Copy V1.0 beta 3 from 29. August 2011
EAC extraction logfile from 26. September 2013, 19:07
Jason Hwang / Unfolding Stone
Used drive : SlimtypeeNAU508 5 Adapter: 1 ID: 0
Read mode : Secure
Utilize accurate stream : Yes
Defeat audio cache : Yes
Make use of C2 pointers : No
Read offset correction : 6
Overread into Lead-In and Lead-Out : No
Fill up missing offset samples with silence : Yes
Delete leading and trailing silent blocks : No
Null samples used in CRC calculations : Yes
Used interface : Native Win32 interface for Win NT & 2000
Gap handling : Appended to previous track
Used output format : User Defined Encoder
Selected bitrate : 768 kBit/s
Quality : High
Add ID3 tag : No
Command line compressor : C:\Program Files (x86)\Exact Audio Copy\Flac\flac.exe
Additional command line options : -8 -V -T "ARTIST=%artist%" -T "TITLE=%title%" -T "ALBUM=%albumtitle%" -T "DATE=%year%" -T "TRACKNUMBER=%tracknr%" -T "GENRE=%genre%" -T "PERFORMER=%albuminterpret%" -T "COMPOSER=%composer%" %haslyrics%--tag-from-file=LYRICS="%lyricsfile%"%haslyrics% -T "ALBUMARTIST=%albumartist%" -T "DISCNUMBER=%cdnumber%" -T "TOTALDISCS=%totalcds%" -T "TOTALTRACKS=%numtracks%" -T "COMMENT=%comment%" %source% -o %dest%
TOC of the extracted CD
Track | Start | Length | Start sector | End sector
---------------------------------------------------------
1 | 0:00.33 | 5:35.27 | 33 | 25184
2 | 5:35.60 | 9:23.40 | 25185 | 67449
3 | 14:59.25 | 5:15.30 | 67450 | 91104
4 | 20:14.55 | 5:29.45 | 91105 | 115824
5 | 25:44.25 | 6:55.28 | 115825 | 146977
6 | 32:39.53 | 10:11.02 | 146978 | 192804
Track 1
Filename C:\EAC rips\01 - Mizu (Water).wav
Pre-gap length 0:00:02.33
Peak level 89.7 %
Extraction speed 1.1 X
Track quality 100.0 %
Test CRC E419172A
Copy CRC E419172A
Accurately ripped (confidence 2) [35FAA432] (AR v2)
Copy OK
Track 2
Filename C:\EAC rips\02 - Edge of Elysium.wav
Pre-gap length 0:00:07.12
Peak level 91.5 %
Extraction speed 1.4 X
Track quality 100.0 %
Test CRC 4C8AFD1B
Copy CRC 4C8AFD1B
Accurately ripped (confidence 2) [F4114516] (AR v2)
Copy OK
Track 3
Filename C:\EAC rips\03 - Tsuzuriori (Tapestry).wav
Pre-gap length 0:00:07.27
Peak level 81.6 %
Extraction speed 1.3 X
Track quality 99.9 %
Test CRC 57570BBE
Copy CRC 57570BBE
Accurately ripped (confidence 2) [59024529] (AR v2)
Copy OK
Track 4
Filename C:\EAC rips\04 - Cloud Call.wav
Pre-gap length 0:00:06.47
Peak level 100.0 %
Extraction speed 1.6 X
Track quality 100.0 %
Test CRC BB3156F4
Copy CRC BB3156F4
Accurately ripped (confidence 2) [9EE567FC] (AR v2)
Copy OK
Track 5
Filename C:\EAC rips\05 - Solitude.wav
Pre-gap length 0:00:06.30
Peak level 89.3 %
Extraction speed 1.8 X
Track quality 100.0 %
Test CRC 7E58C7EC
Copy CRC 7E58C7EC
Accurately ripped (confidence 2) [33428374] (AR v2)
Copy OK
Track 6
Filename C:\EAC rips\06 - Unfolding Stone.wav
Pre-gap length 0:00:06.05
Peak level 72.0 %
Extraction speed 2.0 X
Track quality 100.0 %
Test CRC 8C9CAB51
Copy CRC 8C9CAB51
Accurately ripped (confidence 2) [A64477F2] (AR v2)
Copy OK
All tracks accurately ripped
No errors occurred
End of status report
---- CUETools DB Plugin V2.1.4
[CTDB TOCID: 4pUc.j7zqrE44Ska4z2hKVPg0CE-] disk not present in database
Submit result: 4pUc.j7zqrE44Ska4z2hKVPg0CE- has been uploaded
==== Log checksum EABA379D9251B65DE0A671D869EF220329523BB0EDFAE3724B96972B269F6D61 ====
 
Содержание индексной карты (.CUE)
REM GENRE Jazz
REM DATE 1990
REM DISCID 440A0A06
REM COMMENT "ExactAudioCopy v1.0b3"
PERFORMER "Jason Hwang"
TITLE "Unfolding Stone"
FILE "01 - Mizu (Water).wav" WAVE
TRACK 01 AUDIO
TITLE "Mizu (Water)"
PERFORMER "Jason Hwang"
PREGAP 00:00:33
INDEX 01 00:00:00
TRACK 02 AUDIO
TITLE "Edge of Elysium"
PERFORMER "Jason Hwang"
INDEX 00 05:28:15
FILE "02 - Edge of Elysium.wav" WAVE
INDEX 01 00:00:00
TRACK 03 AUDIO
TITLE "Tsuzuriori (Tapestry)"
PERFORMER "Jason Hwang"
INDEX 00 09:16:13
FILE "03 - Tsuzuriori (Tapestry).wav" WAVE
INDEX 01 00:00:00
TRACK 04 AUDIO
TITLE "Cloud Call"
PERFORMER "Jason Hwang"
INDEX 00 05:08:58
FILE "04 - Cloud Call.wav" WAVE
INDEX 01 00:00:00
TRACK 05 AUDIO
TITLE "Solitude"
PERFORMER "Jason Hwang"
INDEX 00 05:23:15
FILE "05 - Solitude.wav" WAVE
INDEX 01 00:00:00
TRACK 06 AUDIO
TITLE "Unfolding Stone"
PERFORMER "Jason Hwang"
INDEX 00 06:49:23
FILE "06 - Unfolding Stone.wav" WAVE
INDEX 01 00:00:00
Any questions -> support@pro-jazz.com. По всем вопросам пишите -> support@pro-jazz.com
18:49
131
Нет комментариев. Ваш будет первым!