Вы используете незарегистрированную версию компонента "Вкладки"!

Поиск

(Modern Creative, Free Improvisation) Olavi Trio & Friends (Teppo Olavi Hauta-aho, Jari Olavi Hongisto, Niilo Olavi Louhivuori, Verneri Pohjola, Juhani Aaltonen, Kalle Kalima) - Triologia - 2011, FLAC (tracks+.cue), lossless

Треклист:
Olavi Trio & Friends / Triologia
Жанр: Modern Creative, Free Improvisation
Страна-производитель диска: Finland
Год издания: 2011
Издатель (лейбл): TUM Records
Номер по каталогу: TUM CD 026
Аудиокодек: FLAC (*.flac)
Тип рипа: tracks+.cue
Битрейт аудио: lossless
Продолжительность: 66:57
Источник (релизер): whatcd
Наличие сканов в содержимом раздачи: нет
Треклист:
1.Triologia 4:56
2.Dance of the Arasias 4:19
3.Super Balls 2:25
4.Bassologia 3:33
5.No. 69B 4:48
6.Birds 5:59
7.White Adria 4:56
8.Four Paraphrases for Charles 1:16
9.Biologia 8:42
10.Drumologia 4:23
11.Olavi Pure 3:00
12.Old Papa`s Blues 7:10
13.Hi Bob! 4:32
14.Taysikuu 5:13
 
Лог создания рипа
Exact Audio Copy V1.0 beta 2 from 29. April 2011
EAC extraction logfile from 5. May 2012, 12:34
Olavi Trio & Friends / Triologia
Used drive : TSSTcorpCDDVDW SH-S223L Adapter: 1 ID: 1
Read mode : Secure
Utilize accurate stream : Yes
Defeat audio cache : Yes
Make use of C2 pointers : No
Read offset correction : 6
Overread into Lead-In and Lead-Out : No
Fill up missing offset samples with silence : Yes
Delete leading and trailing silent blocks : No
Null samples used in CRC calculations : Yes
Used interface : Native Win32 interface for Win NT & 2000
Gap handling : Appended to previous track
Used output format : User Defined Encoder
Selected bitrate : 896 kBit/s
Quality : High
Add ID3 tag : No
Command line compressor : C:\Program Files (x86)\Exact Audio Copy\Flac\flac.exe
Additional command line options : -8 -V -T "ARTIST=%artist%" -T "TITLE=%title%" -T "ALBUM=%albumtitle%" -T "DATE=%year%" -T "TRACKNUMBER=%tracknr%" -T "GENRE=%genre%" -T "PERFORMER=%albuminterpret%" -T "COMPOSER=%composer%" %haslyrics%--tag-from-file=LYRIC
TOC of the extracted CD
Track | Start | Length | Start sector | End sector
---------------------------------------------------------
1 | 0:00.00 | 4:58.54 | 0 | 22403
2 | 4:58.54 | 4:22.23 | 22404 | 42076
3 | 9:21.02 | 2:28.06 | 42077 | 53182
4 | 11:49.08 | 3:36.29 | 53183 | 69411
5 | 15:25.37 | 4:50.63 | 69412 | 91224
6 | 20:16.25 | 6:02.44 | 91225 | 118418
7 | 26:18.69 | 4:59.09 | 118419 | 140852
8 | 31:18.03 | 1:21.54 | 140853 | 146981
9 | 32:39.57 | 8:45.20 | 146982 | 186376
10 | 41:25.02 | 4:26.01 | 186377 | 206327
11 | 45:51.03 | 3:03.23 | 206328 | 220075
12 | 48:54.26 | 7:13.39 | 220076 | 252589
13 | 56:07.65 | 4:35.15 | 252590 | 273229
14 | 60:43.05 | 5:14.04 | 273230 | 296783
Track 1
Filename M:\Music\What 4\Olavi Trio & Friends - Triologia (2011) [FLAC]\01 - Triologia.wav
Pre-gap length 0:00:02.00
Peak level 93.3 %
Extraction speed 1.9 X
Track quality 100.0 %
Test CRC 34F34B8A
Copy CRC 34F34B8A
Accurately ripped (confidence 1) [0A8BD28D] (AR v1)
Copy OK
Track 2
Filename M:\Music\What 4\Olavi Trio & Friends - Triologia (2011) [FLAC]\02 - Dance of the Arasias.wav
Pre-gap length 0:00:02.58
Peak level 93.3 %
Extraction speed 2.1 X
Track quality 100.0 %
Test CRC EC1F268C
Copy CRC EC1F268C
Accurately ripped (confidence 1) [08011739] (AR v1)
Copy OK
Track 3
Filename M:\Music\What 4\Olavi Trio & Friends - Triologia (2011) [FLAC]\03 - Super Balls.wav
Pre-gap length 0:00:02.56
Peak level 93.3 %
Extraction speed 1.7 X
Track quality 99.9 %
Test CRC 7FF2A63D
Copy CRC 7FF2A63D
Accurately ripped (confidence 1) [F79F02DF] (AR v1)
Copy OK
Track 4
Filename M:\Music\What 4\Olavi Trio & Friends - Triologia (2011) [FLAC]\04 - Bassologia.wav
Pre-gap length 0:00:02.57
Peak level 93.3 %
Extraction speed 2.3 X
Track quality 100.0 %
Test CRC 9111180F
Copy CRC 9111180F
Accurately ripped (confidence 1) [53D490BC] (AR v1)
Copy OK
Track 5
Filename M:\Music\What 4\Olavi Trio & Friends - Triologia (2011) [FLAC]\05 - No. 69B.wav
Pre-gap length 0:00:02.58
Peak level 93.3 %
Extraction speed 2.3 X
Track quality 99.9 %
Test CRC 70928DCC
Copy CRC 70928DCC
Accurately ripped (confidence 1) [3D42EA02] (AR v1)
Copy OK
Track 6
Filename M:\Music\What 4\Olavi Trio & Friends - Triologia (2011) [FLAC]\06 - Birds.wav
Pre-gap length 0:00:02.57
Peak level 93.9 %
Extraction speed 2.8 X
Track quality 100.0 %
Test CRC E9A448AE
Copy CRC E9A448AE
Accurately ripped (confidence 1) [7B9CBC30] (AR v1)
Copy OK
Track 7
Filename M:\Music\What 4\Olavi Trio & Friends - Triologia (2011) [FLAC]\07 - White Adria.wav
Pre-gap length 0:00:02.57
Peak level 93.3 %
Extraction speed 2.7 X
Track quality 99.9 %
Test CRC CB16FDA9
Copy CRC CB16FDA9
Accurately ripped (confidence 1) [3FD8BC79] (AR v1)
Copy OK
Track 8
Filename M:\Music\What 4\Olavi Trio & Friends - Triologia (2011) [FLAC]\08 - Four Paraphrases for Charles.wav
Pre-gap length 0:00:02.17
Peak level 93.3 %
Extraction speed 2.3 X
Track quality 100.0 %
Test CRC 8759A08F
Copy CRC 8759A08F
Accurately ripped (confidence 1) [47C259EA] (AR v1)
Copy OK
Track 9
Filename M:\Music\What 4\Olavi Trio & Friends - Triologia (2011) [FLAC]\09 - Biologia.wav
Pre-gap length 0:00:04.57
Peak level 93.3 %
Extraction speed 3.4 X
Track quality 100.0 %
Test CRC 25BE8CAF
Copy CRC 25BE8CAF
Accurately ripped (confidence 1) [F6631175] (AR v1)
Copy OK
Track 10
Filename M:\Music\What 4\Olavi Trio & Friends - Triologia (2011) [FLAC]\10 - Drumologia.wav
Pre-gap length 0:00:02.57
Peak level 93.3 %
Extraction speed 3.3 X
Track quality 100.0 %
Test CRC CEF64F73
Copy CRC CEF64F73
Accurately ripped (confidence 1) [4056F98D] (AR v1)
Copy OK
Track 11
Filename M:\Music\What 4\Olavi Trio & Friends - Triologia (2011) [FLAC]\11 - Olavi Puré.wav
Pre-gap length 0:00:02.57
Peak level 73.3 %
Extraction speed 3.3 X
Track quality 100.0 %
Test CRC E4E4F0C1
Copy CRC E4E4F0C1
Accurately ripped (confidence 1) [B7BB87EC] (AR v1)
Copy OK
Track 12
Filename M:\Music\What 4\Olavi Trio & Friends - Triologia (2011) [FLAC]\12 - Old Papa's Blues.wav
Pre-gap length 0:00:02.56
Peak level 93.3 %
Extraction speed 3.8 X
Track quality 100.0 %
Test CRC 2B31CC9D
Copy CRC 2B31CC9D
Accurately ripped (confidence 1) [B0A47A55] (AR v1)
Copy OK
Track 13
Filename M:\Music\What 4\Olavi Trio & Friends - Triologia (2011) [FLAC]\13 - Hi Bob!.wav
Pre-gap length 0:00:02.56
Peak level 96.5 %
Extraction speed 3.3 X
Track quality 99.9 %
Test CRC 3456CD24
Copy CRC 3456CD24
Accurately ripped (confidence 1) [B9DCF0C4] (AR v1)
Copy OK
Track 14
Filename M:\Music\What 4\Olavi Trio & Friends - Triologia (2011) [FLAC]\14 - Täysikuu.wav
Pre-gap length 0:00:02.57
Peak level 93.3 %
Extraction speed 3.5 X
Track quality 99.9 %
Test CRC 91E5AD7B
Copy CRC 91E5AD7B
Accurately ripped (confidence 1) [FE96C2B7] (AR v1)
Copy OK
All tracks accurately ripped
No errors occurred
End of status report
==== Log checksum F2741E4A3649E889FD015753D87FE5EF1387DF95F13E74C87B007B58DD376979 ====
 
Содержание индексной карты (.CUE)
REM GENRE "Free jazz"
REM DATE 2011
REM DISCID CB0F750E
REM COMMENT "ExactAudioCopy v1.0b2"
PERFORMER "Olavi Trio & Friends"
TITLE "Triologia"
FILE "01 - Triologia.wav" WAVE
TRACK 01 AUDIO
TITLE "Triologia"
PERFORMER "Olavi Trio & Friends"
ISRC FITU91100027
INDEX 01 00:00:00
TRACK 02 AUDIO
TITLE "Dance of the Arasias"
PERFORMER "Olavi Trio & Friends"
ISRC FITU91100028
INDEX 00 04:56:10
FILE "02 - Dance of the Arasias.wav" WAVE
INDEX 01 00:00:00
TRACK 03 AUDIO
TITLE "Super Balls"
PERFORMER "Olavi Trio & Friends"
ISRC FITU91100029
INDEX 00 04:19:56
FILE "03 - Super Balls.wav" WAVE
INDEX 01 00:00:00
TRACK 04 AUDIO
TITLE "Bassologia"
PERFORMER "Olavi Trio & Friends"
ISRC FITU91100030
INDEX 00 02:25:38
FILE "04 - Bassologia.wav" WAVE
INDEX 01 00:00:00
TRACK 05 AUDIO
TITLE "No. 69B"
PERFORMER "Olavi Trio & Friends"
ISRC FITU91100031
INDEX 00 03:33:60
FILE "05 - No. 69B.wav" WAVE
INDEX 01 00:00:00
TRACK 06 AUDIO
TITLE "Birds"
PERFORMER "Olavi Trio & Friends"
ISRC FITU91100032
INDEX 00 04:48:20
FILE "06 - Birds.wav" WAVE
INDEX 01 00:00:00
TRACK 07 AUDIO
TITLE "White Adria"
PERFORMER "Olavi Trio & Friends"
ISRC FITU91100033
INDEX 00 06:00:01
FILE "07 - White Adria.wav" WAVE
INDEX 01 00:00:00
TRACK 08 AUDIO
TITLE "Four Paraphrases for Charles"
PERFORMER "Olavi Trio & Friends"
ISRC FITU91100034
INDEX 00 04:56:71
FILE "08 - Four Paraphrases for Charles.wav" WAVE
INDEX 01 00:00:00
TRACK 09 AUDIO
TITLE "Biologia"
PERFORMER "Olavi Trio & Friends"
ISRC FITU91100035
INDEX 00 01:17:11
FILE "09 - Biologia.wav" WAVE
INDEX 01 00:00:00
TRACK 10 AUDIO
TITLE "Drumologia"
PERFORMER "Olavi Trio & Friends"
ISRC FITU91100036
INDEX 00 08:42:52
FILE "10 - Drumologia.wav" WAVE
INDEX 01 00:00:00
TRACK 11 AUDIO
TITLE "Olavi Purй"
PERFORMER "Olavi Trio & Friends"
ISRC FITU91100037
INDEX 00 04:23:33
FILE "11 - Olavi Purй.wav" WAVE
INDEX 01 00:00:00
TRACK 12 AUDIO
TITLE "Old Papa's Blues"
PERFORMER "Olavi Trio & Friends"
ISRC FITU91100038
INDEX 00 03:00:56
FILE "12 - Old Papa's Blues.wav" WAVE
INDEX 01 00:00:00
TRACK 13 AUDIO
TITLE "Hi Bob!"
PERFORMER "Olavi Trio & Friends"
ISRC FITU91100039
INDEX 00 07:10:72
FILE "13 - Hi Bob!.wav" WAVE
INDEX 01 00:00:00
TRACK 14 AUDIO
TITLE "Tдysikuu"
PERFORMER "Olavi Trio & Friends"
ISRC FITU91100040
INDEX 00 04:32:47
FILE "14 - Tдysikuu.wav" WAVE
INDEX 01 00:00:00
 
Состав
Teppo Olavi Hauta-aho bass
Jari Olavi Hongisto trombone
Niilo Olavi Louhivuori drums
with
Verneri Pohjola trumpet (02, 12)
Juhani Aaltonen saxophone (07, 14)
Kalle Kalima guitar (05, 09)
Any questions -> support@pro-jazz.com. По всем вопросам пишите -> support@pro-jazz.com
01:47
136
Нет комментариев. Ваш будет первым!