Вы используете незарегистрированную версию компонента "Вкладки"!

Поиск

(Free Jazz, Free Improvisation) William Parker - Crumbling In the Shadows Is Fraulein Miller's Stale Cake (3cd) - 2011, FLAC (tracks+.cue), lossless

(Free Jazz, Free Improvisation) William Parker - Crumbling In the Shadows Is Fraulein Miller's Stale Cake (3cd) - 2011, FLAC (tracks+.cue), lossless
Треклист:
William Parker / Crumbling In the Shadows Is Fraulein Miller's Stale Cake
Жанр: Free Jazz, Free Improvisation
Страна-производитель диска: США
Год издания: 2011
Издатель (лейбл): Centering Records
Номер по каталогу: 1005 / 1006 / 1007
Страна: США
Аудиокодек: FLAC (*.flac)
Тип рипа: tracks+.cue
Битрейт аудио: lossless
Продолжительность: 3:26:28
Источник (релизер): вот.сиди (Avarance)
Наличие сканов в содержимом раздачи: нет
Треклист:
CD 1
1) Stained Glass Sky with Dancing Light (for Stan Brakhage) 21:23
2) Crumbling in the Shadows is Fraulein Miller's Stale Cake 19:18
3) Equador/Resolution 24:54
CD 2
1) Night Density 13:19
2) Double Mystery 17:35
3) Green Mountains (for Bill Dixon) 5:58
4) Philadelphia Clay 6:42
5) Velocity 6:43
6) Pointed Acceptance 11:51
Recorded on August 12th, 2010 at The Gallery Recording Studio, Brooklyn
CD 3 / Testimony (reissue)
1) Sonic Animation 22:58
2) Testimony (for Beb Guerin) 11:22
3) Light #3 3:52
4) Dedication 15:39
...for Charles Clark 1945-1969
...& Albert Stinson 1945-1969
5) The Second Set 24:11
Recorded December 28, 1994 at The Knitting Factory, New York
All compositions by William Parker
 
Лог создания рипа
Exact Audio Copy V1.0 beta 3 from 29. August 2011
EAC extraction logfile from 9. June 2012, 11:34
William Parker / Crumbling In the Shadows Is Fraulein Miller's Stale Cake
Used drive : HL-DT-STDVDRAM GT30N Adapter: 0 ID: 0
Read mode : Secure
Utilize accurate stream : Yes
Defeat audio cache : Yes
Make use of C2 pointers : No
Read offset correction : 103
Overread into Lead-In and Lead-Out : No
Fill up missing offset samples with silence : Yes
Delete leading and trailing silent blocks : No
Null samples used in CRC calculations : Yes
Used interface : Native Win32 interface for Win NT & 2000
Gap handling : Appended to previous track
Used output format : User Defined Encoder
Selected bitrate : 320 kBit/s
Quality : High
Add ID3 tag : No
Command line compressor : C:\Program Files (x86)\Exact Audio Copy\Flac\flac.exe
Additional command line options : -8 -V -T "ARTIST=%artist%" -T "TITLE=%title%" -T "ALBUM=%albumtitle%" -T "DATE=%year%" -T "TRACKNUMBER=%tracknr%" -T "GENRE=%genre%" -T "PERFORMER=%albuminterpret%" -T "COMPOSER=%composer%" %haslyrics%--tag-from-file=LYRICS="%lyricsfile%"%haslyrics% -T "ALBUMARTIST=%albumartist%" -T "DISCNUMBER=%cdnumber%" -T "TOTALDISCS=%totalcds%" -T "TOTALTRACKS=%numtracks%" -T "COMMENT=%comment%" %source% -o %dest%
TOC of the extracted CD
Track | Start | Length | Start sector | End sector
---------------------------------------------------------
1 | 0:00.00 | 21:26.61 | 0 | 96510
2 | 21:26.61 | 19:20.43 | 96511 | 183553
3 | 40:47.29 | 24:54.04 | 183554 | 295607
Track 1
Filename C:\EACRips\01 - Stained Glass Sky with Dancing Light (for Stan Brakhage).wav
Pre-gap length 0:00:02.00
Peak level 79.9 %
Extraction speed 3.5 X
Track quality 99.9 %
Test CRC B40D1811
Copy CRC B40D1811
Accurately ripped (confidence 1) [58B45E1F] (AR v2)
Copy OK
Track 2
Filename C:\EACRips\02 - Crumbling in the Shadows is Fraulein Miller's Stale Cake.wav
Pre-gap length 0:00:03.00
Peak level 79.7 %
Extraction speed 4.8 X
Track quality 100.0 %
Test CRC 0B919614
Copy CRC 0B919614
Accurately ripped (confidence 1) [41238B28] (AR v2)
Copy OK
Track 3
Filename C:\EACRips\03 - Equador,Resolution.wav
Pre-gap length 0:00:03.00
Peak level 81.6 %
Extraction speed 5.8 X
Track quality 100.0 %
Test CRC 978C00CD
Copy CRC 978C00CD
Accurately ripped (confidence 1) [74845666] (AR v2)
Copy OK
All tracks accurately ripped
No errors occurred
End of status report
---- CUETools DB Plugin V2.1.3
[CTDB TOCID: GDI7NX2ZxaUT4AgBckMehnE0MOU-] found, Submit result: GDI7NX2ZxaUT4AgBckMehnE0MOU- has been confirmed
[4e664fbe] (1/1) Accurately ripped
==== Log checksum C72DFF7D56B0F8AF6DA50CDC8B821A5228572B94DDEFFD53F2EFF2BED149B6AF ====


Exact Audio Copy V1.0 beta 3 from 29. August 2011
EAC extraction logfile from 9. June 2012, 12:12
William Parker / Crumbling In the Shadows Is Fraulein Miller's Stale Cake
Used drive : HL-DT-STDVDRAM GT30N Adapter: 0 ID: 0
Read mode : Secure
Utilize accurate stream : Yes
Defeat audio cache : Yes
Make use of C2 pointers : No
Read offset correction : 103
Overread into Lead-In and Lead-Out : No
Fill up missing offset samples with silence : Yes
Delete leading and trailing silent blocks : No
Null samples used in CRC calculations : Yes
Used interface : Native Win32 interface for Win NT & 2000
Gap handling : Appended to previous track
Used output format : User Defined Encoder
Selected bitrate : 320 kBit/s
Quality : High
Add ID3 tag : No
Command line compressor : C:\Program Files (x86)\Exact Audio Copy\Flac\flac.exe
Additional command line options : -8 -V -T "ARTIST=%artist%" -T "TITLE=%title%" -T "ALBUM=%albumtitle%" -T "DATE=%year%" -T "TRACKNUMBER=%tracknr%" -T "GENRE=%genre%" -T "PERFORMER=%albuminterpret%" -T "COMPOSER=%composer%" %haslyrics%--tag-from-file=LYRICS="%lyricsfile%"%haslyrics% -T "ALBUMARTIST=%albumartist%" -T "DISCNUMBER=%cdnumber%" -T "TOTALDISCS=%totalcds%" -T "TOTALTRACKS=%numtracks%" -T "COMMENT=%comment%" %source% -o %dest%
TOC of the extracted CD
Track | Start | Length | Start sector | End sector
---------------------------------------------------------
1 | 0:00.00 | 13:21.62 | 0 | 60136
2 | 13:21.62 | 17:37.51 | 60137 | 139462
3 | 30:59.38 | 6:00.24 | 139463 | 166486
4 | 36:59.62 | 6:44.30 | 166487 | 196816
5 | 43:44.17 | 6:45.05 | 196817 | 227196
6 | 50:29.22 | 11:51.44 | 227197 | 280565
Track 1
Filename C:\EACRips\01 - Night Density.wav
Pre-gap length 0:00:02.00
Peak level 82.0 %
Extraction speed 3.4 X
Track quality 100.0 %
Test CRC 00751382
Copy CRC 00751382
Accurately ripped (confidence 1) [A275316B] (AR v2)
Copy OK
Track 2
Filename C:\EACRips\02 - Double Mystery.wav
Pre-gap length 0:00:02.04
Peak level 81.5 %
Extraction speed 4.4 X
Track quality 100.0 %
Test CRC 02F4597B
Copy CRC 02F4597B
Accurately ripped (confidence 1) [C1BB756F] (AR v2)
Copy OK
Track 3
Filename C:\EACRips\03 - Green Mountains - for Bill Dixon.wav
Pre-gap length 0:00:02.04
Peak level 81.5 %
Extraction speed 4.7 X
Track quality 100.0 %
Test CRC 8E408498
Copy CRC 8E408498
Accurately ripped (confidence 1) [3EB7BD60] (AR v2)
Copy OK
Track 4
Filename C:\EACRips\04 - Philadelphia Clay.wav
Pre-gap length 0:00:02.00
Peak level 84.9 %
Extraction speed 4.4 X
Track quality 99.9 %
Test CRC 54F58313
Copy CRC 54F58313
Accurately ripped (confidence 1) [B1365ACD] (AR v2)
Copy OK
Track 5
Filename C:\EACRips\05 - Velocity.wav
Pre-gap length 0:00:02.04
Peak level 84.0 %
Extraction speed 5.3 X
Track quality 100.0 %
Test CRC 7C7B01EB
Copy CRC 7C7B01EB
Accurately ripped (confidence 1) [521441C1] (AR v2)
Copy OK
Track 6
Filename C:\EACRips\06 - Pointed Acceptance.wav
Pre-gap length 0:00:02.00
Peak level 82.8 %
Extraction speed 5.9 X
Track quality 100.0 %
Test CRC 0B71886E
Copy CRC 0B71886E
Accurately ripped (confidence 1) [8DD42F48] (AR v2)
Copy OK
All tracks accurately ripped
No errors occurred
End of status report
---- CUETools DB Plugin V2.1.3
[CTDB TOCID: RgVGcCBHOSBspQiRO4Zc_mFffrw-] found, Submit result: RgVGcCBHOSBspQiRO4Zc_mFffrw- has been confirmed
[6ecea354] (1/1) Accurately ripped
==== Log checksum 3082863CEA7867640ACAD6427B469D3E96CDC86215FDD071BD7A6509BF0681DD ====


Exact Audio Copy V1.0 beta 3 from 29. August 2011
EAC extraction logfile from 9. June 2012, 13:27
William Parker / Crumbling In the Shadows Is Fraulein Miller's Stale Cake .
Used drive : HL-DT-STDVDRAM GT30N Adapter: 0 ID: 0
Read mode : Secure
Utilize accurate stream : Yes
Defeat audio cache : Yes
Make use of C2 pointers : No
Read offset correction : 103
Overread into Lead-In and Lead-Out : No
Fill up missing offset samples with silence : Yes
Delete leading and trailing silent blocks : No
Null samples used in CRC calculations : Yes
Used interface : Native Win32 interface for Win NT & 2000
Gap handling : Appended to previous track
Used output format : User Defined Encoder
Selected bitrate : 320 kBit/s
Quality : High
Add ID3 tag : No
Command line compressor : C:\Program Files (x86)\Exact Audio Copy\Flac\flac.exe
Additional command line options : -8 -V -T "ARTIST=%artist%" -T "TITLE=%title%" -T "ALBUM=%albumtitle%" -T "DATE=%year%" -T "TRACKNUMBER=%tracknr%" -T "GENRE=%genre%" -T "PERFORMER=%albuminterpret%" -T "COMPOSER=%composer%" %haslyrics%--tag-from-file=LYRICS="%lyricsfile%"%haslyrics% -T "ALBUMARTIST=%albumartist%" -T "DISCNUMBER=%cdnumber%" -T "TOTALDISCS=%totalcds%" -T "TOTALTRACKS=%numtracks%" -T "COMMENT=%comment%" %source% -o %dest%
TOC of the extracted CD
Track | Start | Length | Start sector | End sector
---------------------------------------------------------
1 | 0:00.00 | 23:05.09 | 0 | 103883
2 | 23:05.09 | 11:28.66 | 103884 | 155549
3 | 34:34.00 | 3:55.23 | 155550 | 173197
4 | 38:29.23 | 15:45.10 | 173198 | 244082
5 | 54:14.33 | 24:11.22 | 244083 | 352929
Track 1
Filename C:\EACRips\01 - Sonic Animation.wav
Pre-gap length 0:00:02.00
Peak level 56.4 %
Extraction speed 3.7 X
Track quality 99.9 %
Test CRC 8BD25CD2
Copy CRC 8BD25CD2
Accurately ripped (confidence 1) [C97EEE77] (AR v2)
Copy OK
Track 2
Filename C:\EACRips\02 - Testimony.wav
Pre-gap length 0:00:03.00
Peak level 85.9 %
Extraction speed 4.3 X
Track quality 99.9 %
Test CRC 58F61DD4
Copy CRC 58F61DD4
Accurately ripped (confidence 1) [CF7931F4] (AR v2)
Copy OK
Track 3
Filename C:\EACRips\03 - Light #3.wav
Pre-gap length 0:00:03.00
Peak level 89.8 %
Extraction speed 4.4 X
Track quality 100.0 %
Test CRC 95EE847B
Copy CRC 95EE847B
Accurately ripped (confidence 1) [A1E67817] (AR v2)
Copy OK
Track 4
Filename C:\EACRips\04 - Dedication.wav
Pre-gap length 0:00:03.00
Peak level 86.9 %
Extraction speed 5.4 X
Track quality 100.0 %
Test CRC 5B31937A
Copy CRC 5B31937A
Accurately ripped (confidence 1) [2EC3857E] (AR v2)
Copy OK
Track 5
Filename C:\EACRips\05 - The Second Set.wav
Pre-gap length 0:00:03.00
Peak level 87.6 %
Extraction speed 6.2 X
Track quality 100.0 %
Test CRC 27AAC6BF
Copy CRC 27AAC6BF
Accurately ripped (confidence 1) [0E2873A2] (AR v2)
Copy OK
All tracks accurately ripped
No errors occurred
End of status report
---- CUETools DB Plugin V2.1.3
[CTDB TOCID: QC05cyadruTj0fDeQBDlzKVmTFM-] found, Submit result: QC05cyadruTj0fDeQBDlzKVmTFM- has been confirmed
[9042ae51] (1/1) Accurately ripped
==== Log checksum 0AF12817CAFFECE1066CFA60CD0851530C2E77A3D58E958A9A08F2D088B065B2 ====
 
Содержание индексной карты (.CUE)
REM DATE 2011
REM DISCID 280F6503
REM COMMENT "ExactAudioCopy v1.0b3"
PERFORMER "William Parker"
TITLE "Crumbling In the Shadows Is Fraulein Miller's Stale Cake"
FILE "01 - Stained Glass Sky with Dancing Light (for Stan Brakhage).wav" WAVE
TRACK 01 AUDIO
TITLE "Stained Glass Sky with Dancing Light (for Stan Brakhage)"
PERFORMER "William Parker"
INDEX 01 00:00:00
TRACK 02 AUDIO
TITLE "Crumbling in the Shadows is Fraulein Miller's Stale Cake"
PERFORMER "William Parker"
INDEX 00 21:23:61
FILE "02 - Crumbling in the Shadows is Fraulein Miller's Stale Cake.wav" WAVE
INDEX 01 00:00:00
TRACK 03 AUDIO
TITLE "Equador/Resolution"
PERFORMER "William Parker"
INDEX 00 19:17:43
FILE "03 - Equador,Resolution.wav" WAVE
INDEX 01 00:00:00


REM GENRE Jazz
REM DATE 2011
REM DISCID 3B0E9C06
REM COMMENT "ExactAudioCopy v1.0b3"
PERFORMER "William Parker"
TITLE "Crumbling In the Shadows Is Fraulein Miller's Stale Cake"
FILE "01 - Night Density.wav" WAVE
TRACK 01 AUDIO
TITLE "Night Density"
PERFORMER "William Parker"
INDEX 01 00:00:00
TRACK 02 AUDIO
TITLE "Double Mystery"
PERFORMER "William Parker"
INDEX 00 13:19:59
FILE "02 - Double Mystery.wav" WAVE
INDEX 01 00:00:00
TRACK 03 AUDIO
TITLE "Green Mountains - for Bill Dixon"
PERFORMER "William Parker"
INDEX 00 17:35:48
FILE "03 - Green Mountains - for Bill Dixon.wav" WAVE
INDEX 01 00:00:00
TRACK 04 AUDIO
TITLE "Philadelphia Clay"
PERFORMER "William Parker"
INDEX 00 05:58:24
FILE "04 - Philadelphia Clay.wav" WAVE
INDEX 01 00:00:00
TRACK 05 AUDIO
TITLE "Velocity"
PERFORMER "William Parker"
INDEX 00 06:42:27
FILE "05 - Velocity.wav" WAVE
INDEX 01 00:00:00
TRACK 06 AUDIO
TITLE "Pointed Acceptance"
PERFORMER "William Parker"
INDEX 00 06:43:05
FILE "06 - Pointed Acceptance.wav" WAVE
INDEX 01 00:00:00


REM GENRE Jazz
REM DATE 2011
REM DISCID 3B126105
REM COMMENT "ExactAudioCopy v1.0b3"
PERFORMER "William Parker"
TITLE "Crumbling In the Shadows Is Fraulein Miller's Stale Cake ."
FILE "01 - Sonic Animation.wav" WAVE
TRACK 01 AUDIO
TITLE "Sonic Animation"
PERFORMER "William Parker"
INDEX 01 00:00:00
TRACK 02 AUDIO
TITLE "Testimony"
PERFORMER "William Parker"
INDEX 00 23:02:09
FILE "02 - Testimony.wav" WAVE
INDEX 01 00:00:00
TRACK 03 AUDIO
TITLE "Light #3"
PERFORMER "William Parker"
INDEX 00 11:25:66
FILE "03 - Light #3.wav" WAVE
INDEX 01 00:00:00
TRACK 04 AUDIO
TITLE "Dedication"
PERFORMER "William Parker"
INDEX 00 03:52:23
FILE "04 - Dedication.wav" WAVE
INDEX 01 00:00:00
TRACK 05 AUDIO
TITLE "The Second Set"
PERFORMER "William Parker"
INDEX 00 15:42:10
FILE "05 - The Second Set.wav" WAVE
INDEX 01 00:00:00
 
Состав
William Parker bass
Any questions -> support@pro-jazz.com. По всем вопросам пишите -> support@pro-jazz.com
01:47
200
Нет комментариев. Ваш будет первым!