Вы используете незарегистрированную версию компонента "Вкладки"!

Поиск

(Modern Creative, Contemporary Jazz) VA - The Music Of Eric Von Essen Volume III - 2002, FLAC (tracks+.cue) lossless

Треклист:
The Music Of Eric Von Essen Volume III
Жанр: Modern Creative, Contemporary Jazz
Страна-производитель диска: US
Год издания диска: 2002
Издатель (лейбл): Cryptogramophone
Номер по каталогу: CG115
Страна: US
Аудио кодек: FLAC (*.flac)
Тип рипа: tracks+.cue
Битрейт аудио: lossless
Продолжительность: 61:41
Источник (релизер): what.cd
Наличие сканов в содержимом раздачи: нет
Треклист:
1. Blues For Me [03:58]
2. Unresolved [08:53]
3. Valse Agite [06:11]
4. It's Just One Big Party [05:18]
5. The Good Doctor [07:33]
6. Norton's Last Words [05:37]
7. Finska Flues [03:39]
8. Another Moon [04:46]
9. One Eye Laughs, One Eye Weeps [04:02]
10. Flicker And Burn [11:12]
 
Лог создания рипа
Exact Audio Copy V0.99 prebeta 4 from 23. January 2008
EAC extraction logfile from 19. July 2009, 15:08
Various / The Music of Eric von Essen Volume III
Used drive : Optiarc DVD RW AD-7200A Adapter: 1 ID: 0
Read mode : Secure
Utilize accurate stream : Yes
Defeat audio cache : Yes
Make use of C2 pointers : No
Read offset correction : 48
Overread into Lead-In and Lead-Out : No
Fill up missing offset samples with silence : Yes
Delete leading and trailing silent blocks : No
Null samples used in CRC calculations : Yes
Used interface : Native Win32 interface for Win NT & 2000
Gap handling : Appended to previous track
Used output format : User Defined Encoder
Selected bitrate : 768 kBit/s
Quality : High
Add ID3 tag : No
Command line compressor : C:\Program Files\Exact Audio Copy\Flac\flac.exe
Additional command line options : -V -8 -T "artist=%a" -T "title=%t" -T "album=%g" -T "date=%y" -T "tracknumber=%n" -T "genre=%m" %s
TOC of the extracted CD
Track | Start | Length | Start sector | End sector
---------------------------------------------------------
1 | 0:00.00 | 4:00.43 | 0 | 18042
2 | 4:00.43 | 8:55.45 | 18043 | 58212
3 | 12:56.13 | 6:13.03 | 58213 | 86190
4 | 19:09.16 | 5:22.33 | 86191 | 110373
5 | 24:31.49 | 7:37.24 | 110374 | 144672
6 | 32:08.73 | 5:39.17 | 144673 | 170114
7 | 37:48.15 | 3:41.40 | 170115 | 186729
8 | 41:29.55 | 4:51.63 | 186730 | 208617
9 | 46:21.43 | 4:07.55 | 208618 | 227197
10 | 50:29.23 | 11:12.04 | 227198 | 277601
Track 1
Filename C:\Uploads\Various Artists - The Music of Eric von Essen Volume III (2002) [FLAC]\01 - Blues for Me.wav
Pre-gap length 0:00:02.00
Peak level 97.7 %
Track quality 100.0 %
Copy CRC 3CA75EE2
Copy OK
Track 2
Filename C:\Uploads\Various Artists - The Music of Eric von Essen Volume III (2002) [FLAC]\02 - Unresolved.wav
Pre-gap length 0:00:02.62
Peak level 97.7 %
Track quality 99.9 %
Copy CRC 53227B7C
Copy OK
Track 3
Filename C:\Uploads\Various Artists - The Music of Eric von Essen Volume III (2002) [FLAC]\03 - Valse Agite.wav
Pre-gap length 0:00:01.84
Peak level 97.7 %
Track quality 100.0 %
Copy CRC 2B40E06B
Copy OK
Track 4
Filename C:\Uploads\Various Artists - The Music of Eric von Essen Volume III (2002) [FLAC]\04 - It's Just One Big Party.wav
Pre-gap length 0:00:01.86
Peak level 97.7 %
Track quality 99.9 %
Copy CRC 569E8060
Copy OK
Track 5
Filename C:\Uploads\Various Artists - The Music of Eric von Essen Volume III (2002) [FLAC]\05 - The Good Doctor.wav
Pre-gap length 0:00:03.62
Peak level 97.7 %
Track quality 100.0 %
Copy CRC 9BFD63EE
Copy OK
Track 6
Filename C:\Uploads\Various Artists - The Music of Eric von Essen Volume III (2002) [FLAC]\06 - Norton's Last Words.wav
Pre-gap length 0:00:04.18
Peak level 97.7 %
Track quality 100.0 %
Copy CRC 6360F58D
Copy OK
Track 7
Filename C:\Uploads\Various Artists - The Music of Eric von Essen Volume III (2002) [FLAC]\07 - Finska Flues.wav
Pre-gap length 0:00:01.90
Peak level 97.7 %
Track quality 100.0 %
Copy CRC 2C91BD46
Copy OK
Track 8
Filename C:\Uploads\Various Artists - The Music of Eric von Essen Volume III (2002) [FLAC]\08 - Another Moon.wav
Pre-gap length 0:00:02.40
Peak level 97.7 %
Track quality 100.0 %
Copy CRC 4590F559
Copy OK
Track 9
Filename C:\Uploads\Various Artists - The Music of Eric von Essen Volume III (2002) [FLAC]\09 - One Eye Laughs, One Eye Weeps.wav
Pre-gap length 0:00:05.94
Peak level 97.7 %
Track quality 99.9 %
Copy CRC 53719BB0
Copy OK
Track 10
Filename C:\Uploads\Various Artists - The Music of Eric von Essen Volume III (2002) [FLAC]\10 - Flicker and Burn.wav
Pre-gap length 0:00:05.32
Peak level 97.7 %
Track quality 100.0 %
Copy CRC E909C437
Copy OK
No errors occurred
End of status report
 
Содержание индексной карты (.CUE)
REM GENRE Jazz
REM DATE 2002
REM DISCID 7A0E750A
REM COMMENT "ExactAudioCopy v0.99pb4"
PERFORMER "Various"
TITLE "The Music of Eric von Essen Volume III"
FILE "01 - Blues for Me.wav" WAVE
TRACK 01 AUDIO
TITLE "Blues for Me"
PERFORMER "Nels Cline & Ken Filiano"
INDEX 01 00:00:00
TRACK 02 AUDIO
TITLE "Unresolved"
PERFORMER "Jeff Gauthier, Nels Cline, Michael Elizondo & Alex Cline"
INDEX 00 03:57:71
FILE "02 - Unresolved.wav" WAVE
INDEX 01 00:00:00
TRACK 03 AUDIO
TITLE "Valse Agite"
PERFORMER "Chuck Manning, Theo Saunders, Darek Oles & Ralph Penland"
INDEX 00 08:53:57
FILE "03 - Valse Agite.wav" WAVE
INDEX 01 00:00:00
TRACK 04 AUDIO
TITLE "It's Just One Big Party"
PERFORMER "Chuck Manning, Theo Saunders, Darek Oles & Ralph Penland"
INDEX 00 06:11:13
FILE "04 - It's Just One Big Party.wav" WAVE
INDEX 01 00:00:00
TRACK 05 AUDIO
TITLE "The Good Doctor"
PERFORMER "Nels Cline, David Witham, Joel Hamilton & Alex Cline"
INDEX 00 05:18:61
FILE "05 - The Good Doctor.wav" WAVE
INDEX 01 00:00:00
TRACK 06 AUDIO
TITLE "Norton's Last Words"
PERFORMER "Jeff Colella, Putter Smith & Jerry Kalaf"
INDEX 00 07:33:10
FILE "06 - Norton's Last Words.wav" WAVE
INDEX 01 00:00:00
TRACK 07 AUDIO
TITLE "Finska Flues"
PERFORMER "Stacy Rowles, Tom Garvin, Larry Koonse, Tom Warrington & Paul Kreibich"
INDEX 00 05:37:24
FILE "07 - Finska Flues.wav" WAVE
INDEX 01 00:00:00
TRACK 08 AUDIO
TITLE "Another Moon"
PERFORMER "Stacy Rowles, Tom Garvin, Larry Koonse, Tom Warrington & Paul Kreibich"
INDEX 00 03:39:10
FILE "08 - Another Moon.wav" WAVE
INDEX 01 00:00:00
TRACK 09 AUDIO
TITLE "One Eye Laughs, One Eye Weeps"
PERFORMER "Kate McGarry, Karen Hammack, Steve Cardenas, Scott Colley & Kenny Wollesen"
INDEX 00 04:45:67
FILE "09 - One Eye Laughs, One Eye Weeps.wav" WAVE
INDEX 01 00:00:00
TRACK 10 AUDIO
TITLE "Flicker and Burn"
PERFORMER "Alan Pasqua, Dave Carpenter & Peter Erskine"
INDEX 00 04:02:31
FILE "10 - Flicker and Burn.wav" WAVE
INDEX 01 00:00:00
 
Лог проверки качества
d:\>d:\aucdtect -d/-m0 d:\zzz\*.wav
auCDtect: CD records authenticity detector, version 0.8.2
Copyright (c) 2004 Oleg Berngardt. All rights reserved.
Copyright (c) 2004 Alexander Djourik. All rights reserved.
------------------------------------------------------------
Processing file: [01. Nels Cline & Ken Filiano - Blues for Me.wav]
------------------------------------------------------------
This track looks like CDDA with probability 54%
------------------------------------------------------------
Processing file: [02. Jeff Gauthier, Nels Cline, Michael Elizondo & Alex Cline - Unresolved.wav]
------------------------------------------------------------
This track looks like CDDA with probability 100%
------------------------------------------------------------
Processing file: [03. Chuck Manning, Theo Saunders, Darek Oles & Ralph Penland - Valse Agite.wav]
------------------------------------------------------------
This track looks like CDDA with probability 100%
------------------------------------------------------------
Processing file: [04. Chuck Manning, Theo Saunders, Darek Oles & Ralph Penland - It's Just One Big Party.wav]
------------------------------------------------------------
This track looks like CDDA with probability 100%
------------------------------------------------------------
Processing file: [05. Nels Cline, David Witham, Joel Hamilton & Alex Cline - The Good Doctor.wav]
------------------------------------------------------------
Could not qualify the source of this track.
------------------------------------------------------------
Processing file: [06. Jeff Colella, Putter Smith & Jerry Kalaf - Norton's Last Words.wav]
------------------------------------------------------------
This track looks like CDDA with probability 100%
------------------------------------------------------------
Processing file: [07. Stacy Rowles, Tom Garvin, Larry Koonse, Tom Warrington & Paul Kreibich - Finska Flues.wav]
------------------------------------------------------------
This track looks like CDDA with probability 100%
------------------------------------------------------------
Processing file: [08. Stacy Rowles, Tom Garvin, Larry Koonse, Tom Warrington & Paul Kreibich - Another Moon.wav]
------------------------------------------------------------
This track looks like CDDA with probability 100%
------------------------------------------------------------
Processing file: [09. Kate McGarry, Karen Hammack, Steve Cardenas, Scott Colley & Kenny Wollesen - One Eye Laughs, One Eye Weeps.wav]
------------------------------------------------------------
This track looks like CDDA with probability 100%
------------------------------------------------------------
Processing file: [10. Alan Pasqua, Dave Carpenter & Peter Erskine - Flicker and Burn.wav]
------------------------------------------------------------
This track looks like CDDA with probability 100%
------------------------------------------------------------
Final Conclusion:
------------------------------------------------------------
These tracks looks like CDDA with probability 100%
 
Скриншот спектра частот
Доп. информация:
 
Some Info
Some of the greatest jazz artists in Los Angeles and New York have come together to pay tribute to the late bass player and composer Eric von Essen who worked with Art Farmer, Bob Brookmeyer, Warne Marsh, Shorty Rogers, Bud Shank and Jimmy Rowles, to name a few. Volume III features the same stellar lineup as Volume I & II including: Alex Cline, Nels Cline, Peter Erskine, Larry Koonse, Alan Pasqua, Stacy Rowles plus a few others including vocalist Kate McGarry.
"This is a heartrending recording of aching beauty. Eric von Essen composed over 100 tunes, and this sampling clearly stamps him as a writer of significant music. It also shows how much his fellow musicians loved him and how much they miss him." - Frank Rubolino, Cadence
"As Cryptogramophone's three-volume tribute to the late Eric von Essen draws to a close, we find ourselves amazed at the diversity of players, styles, and moods coming together in his honor. Von Essen was not exactly a well-known player, but the large number of musicians assembled here testifies to the depth and impact of his music. The overall tone remains light and airy, rarely losing detail or interest." - Nils Jacobson, AllAboutJazz
 
Состав
Alan Pasqua - piano (track 10)
Alex Cline - drums, percussion (tracks 2, 5)
Chuck Manning - tenor saxophone (tracks 3, 4)
Darek Oles - bass (tracks 3, 4)
Dave Carpenter - bass (track 10)
David Witham - piano (track 5)
Jeff Colella - piano (track 6)
Jeff Gauthier - violin (track 2)
Jerry Kalaf - drums (track 6)
Joel Hamilton - bass (track 5)
Karen Hammack - piano (track 9)
Kate McGarry - voice (track 9)
Ken Filiano - bass (track 1)
Kenny Wollesen - drums, percussion (track 9)
Larry Koonse - electric guitar (tracks 7, 8)
Michael Elizondo - bass (track 2)
Nels Cline - acoustic, electric and classical guitars (tracks 1, 2, 5)
Paul Kreibich - drums (tracks 7, 8)
Peter Erskine - drums (track 10)
Putter Smith - bass (track 6)
Ralph Penland - drums (tracks 3, 4)
Scott Colley - bass (track 9)
Stacy Rowles - trumpet & flugelhorn (tracks 7, 8)
Steve Cardenas - electric guitar (track 9)
Theo Saunders - piano (tracks 3, 4)
Tom Garvin - piano (tracks 7, 8)
Tom Warrington - bass (tracks 7, 8)
По всем вопросам пишите личное сообщение пользователю M0p94ok.
07:11
188
Нет комментариев. Ваш будет первым!