Вы используете незарегистрированную версию компонента "Вкладки"!

Поиск

(cabaret/dark cabaret/avant-garde) VA - Welcome To The Twisted Cabaret Volume 1 - 2010, FLAC (tracks+.cue) lossless

Треклист:
Various Artists - Welcome To The Twisted Cabaret Volume 1
Жанр: cabaret/dark cabaret/avant-garde
Страна-производитель диска: France
Год издания диска: 2010
Издатель (лейбл): Volvox Music
Аудио кодек: FLAC (*.flac)
Тип рипа: tracks+.cue
Битрейт аудио: lossless
Продолжительность: 72:49
Источник (релизер): what.cd darquange
Наличие сканов в содержимом раздачи: нет
Треклист:
01 The Tiger Lillies — Start A Fire 02:15
02 Baby Dee — The Earlie King 05:23
03 Evelyn Evelyn — Have You Seen My Sister Evelyn 02:13
04 The Real Tuesday Weld — The Sweetest Songs 04:23
05 The Dresden Dolls — Bank Of Boston Beauty Queen 05:44
06 Budam — Da Da Da Die 03:42
07 Maxi Monster Music Show — J'Aurais Aime 03:37
08 The Residents — The Dying Oilman 03:11
09 Kokusyoku Sumire — Gekko Renka 04:31
10 Katzenjammer Kabarett — Saylor Sandham's Sister 04:19
11 Vermillion Lies — Bonnie & Clyde 02:41
12 Little Annie — Sit On Down 03:17
13 De Kift — Knoeck 03:59
14 The Legendary Pink Dots — Man Or Mouse 05:51
15 Aranos — New Guitar 04:13
16 Marcella & The Forget Me Nots — What Have You Done To Your Face 03:48
17 El Tiger Comics Group & Joel Hubaut — Vapamou Rire 05:07
18 Little White Rabbits Still Bleed Red — Balloon Animal Suicide (Big Blue Ribbons) 04:35
 
Лог создания рипа
X Lossless Decoder version 20100828 (120.6)
XLD extraction logfile from 2010-09-01 16:47:47 -0700
Various Artists / Twisted Cabaret Vol.1
Used drive : TSSTcorp CDDVDW SE-S084C (revision TU00)
Use cdparanoia mode : YES (CDParanoia III 10.2 engine)
Disable audio cache : OK for the drive with cache less than 2750KB
Make use of C2 pointers : NO
Read offset correction : 6
Max retry count : 100
Gap status : Analyzed, Appended
TOC of the extracted CD
Track | Start | Length | Start sector | End sector
---------------------------------------------------------
1 | 00:00:00 | 02:14:42 | 0 | 10091
2 | 02:14:42 | 05:22:68 | 10092 | 34309
3 | 07:37:35 | 02:12:70 | 34310 | 44279
4 | 09:50:30 | 04:21:71 | 44280 | 63925
5 | 14:12:26 | 05:43:40 | 63926 | 89690
6 | 19:55:66 | 03:41:43 | 89691 | 106308
7 | 23:37:34 | 03:36:20 | 106309 | 122528
8 | 27:13:54 | 03:10:19 | 122529 | 136797
9 | 30:23:73 | 04:30:42 | 136798 | 157089
10 | 34:54:40 | 04:18:64 | 157090 | 176503
11 | 39:13:29 | 02:40:37 | 176504 | 188540
12 | 41:53:66 | 03:16:54 | 188541 | 203294
13 | 45:10:45 | 03:58:26 | 203295 | 221170
14 | 49:08:71 | 05:50:44 | 221171 | 247464
15 | 54:59:40 | 04:12:25 | 247465 | 266389
16 | 59:11:65 | 03:47:61 | 266390 | 283475
17 | 62:59:51 | 05:06:71 | 283476 | 306496
18 | 68:06:47 | 04:34:35 | 306497 | 327081
Track 01
Filename : /Users/edward/Documents/Azureus Downloads/01 - Start A Fire.flac
Pre-gap length : 00:02:00
CRC32 hash (test run) : 225908FA
CRC32 hash : 225908FA
CRC32 hash (skip zero) : 28EF6A5C
AccurateRip signature : CC09A8D7
->Accurately ripped! (confidence 1)
Statistics
Read error : 0
Skipped (treated as error) : 0
Edge jitter error (maybe fixed) : 0
Atom jitter error (maybe fixed) : 0
Drift error (maybe fixed) : 0
Dropped bytes error (maybe fixed) : 0
Duplicated bytes error (maybe fixed) : 0
Inconsistency in error sectors : 0
Track 02
Filename : /Users/edward/Documents/Azureus Downloads/02 - The Earlie King.flac
CRC32 hash (test run) : BE3A76DB
CRC32 hash : BE3A76DB
CRC32 hash (skip zero) : 18B3AEE2
AccurateRip signature : 05FC5B49
->Accurately ripped! (confidence 1)
Statistics
Read error : 0
Skipped (treated as error) : 0
Edge jitter error (maybe fixed) : 0
Atom jitter error (maybe fixed) : 0
Drift error (maybe fixed) : 0
Dropped bytes error (maybe fixed) : 0
Duplicated bytes error (maybe fixed) : 0
Inconsistency in error sectors : 0
Track 03
Filename : /Users/edward/Documents/Azureus Downloads/03 - Have You Seen My Sister Evelyn?.flac
CRC32 hash (test run) : 06BDDB37
CRC32 hash : 06BDDB37
CRC32 hash (skip zero) : 8879DB34
AccurateRip signature : 911B62AD
->Accurately ripped! (confidence 1)
Statistics
Read error : 0
Skipped (treated as error) : 0
Edge jitter error (maybe fixed) : 0
Atom jitter error (maybe fixed) : 0
Drift error (maybe fixed) : 0
Dropped bytes error (maybe fixed) : 0
Duplicated bytes error (maybe fixed) : 0
Inconsistency in error sectors : 0
Track 04
Filename : /Users/edward/Documents/Azureus Downloads/04 - The Sweetest Songs.flac
CRC32 hash (test run) : 33616977
CRC32 hash : 33616977
CRC32 hash (skip zero) : 1A221BCB
AccurateRip signature : 88151690
->Accurately ripped! (confidence 1)
Statistics
Read error : 0
Skipped (treated as error) : 0
Edge jitter error (maybe fixed) : 0
Atom jitter error (maybe fixed) : 0
Drift error (maybe fixed) : 0
Dropped bytes error (maybe fixed) : 0
Duplicated bytes error (maybe fixed) : 0
Inconsistency in error sectors : 0
Track 05
Filename : /Users/edward/Documents/Azureus Downloads/05 - Bank Of Boston Beauty Queen.flac
CRC32 hash (test run) : 1BA1023C
CRC32 hash : 1BA1023C
CRC32 hash (skip zero) : F6F2CAD6
AccurateRip signature : 2A9329B8
->Accurately ripped! (confidence 1)
Statistics
Read error : 0
Skipped (treated as error) : 0
Edge jitter error (maybe fixed) : 0
Atom jitter error (maybe fixed) : 0
Drift error (maybe fixed) : 0
Dropped bytes error (maybe fixed) : 0
Duplicated bytes error (maybe fixed) : 0
Inconsistency in error sectors : 0
Track 06
Filename : /Users/edward/Documents/Azureus Downloads/06 - Da Da Da Die.flac
CRC32 hash (test run) : 537F86A9
CRC32 hash : 537F86A9
CRC32 hash (skip zero) : D0CA9D7B
AccurateRip signature : A7C6410A
->Accurately ripped! (confidence 1)
Statistics
Read error : 0
Skipped (treated as error) : 0
Edge jitter error (maybe fixed) : 0
Atom jitter error (maybe fixed) : 0
Drift error (maybe fixed) : 0
Dropped bytes error (maybe fixed) : 0
Duplicated bytes error (maybe fixed) : 0
Inconsistency in error sectors : 0
Track 07
Filename : /Users/edward/Documents/Azureus Downloads/07 - J'Aurais AimГ©.flac
CRC32 hash (test run) : 1B376044
CRC32 hash : 1B376044
CRC32 hash (skip zero) : C90CCD96
AccurateRip signature : 05F83F58
->Accurately ripped! (confidence 1)
Statistics
Read error : 0
Skipped (treated as error) : 0
Edge jitter error (maybe fixed) : 0
Atom jitter error (maybe fixed) : 0
Drift error (maybe fixed) : 0
Dropped bytes error (maybe fixed) : 0
Duplicated bytes error (maybe fixed) : 0
Inconsistency in error sectors : 0
Track 08
Filename : /Users/edward/Documents/Azureus Downloads/08 - The Dying Oilman.flac
CRC32 hash (test run) : 483E7D28
CRC32 hash : 483E7D28
CRC32 hash (skip zero) : 4951F5F0
AccurateRip signature : 329BD424
->Accurately ripped! (confidence 1)
Statistics
Read error : 0
Skipped (treated as error) : 0
Edge jitter error (maybe fixed) : 0
Atom jitter error (maybe fixed) : 0
Drift error (maybe fixed) : 0
Dropped bytes error (maybe fixed) : 0
Duplicated bytes error (maybe fixed) : 0
Inconsistency in error sectors : 0
Track 09
Filename : /Users/edward/Documents/Azureus Downloads/09 - Gekko Renka.flac
CRC32 hash (test run) : A27C1A38
CRC32 hash : A27C1A38
CRC32 hash (skip zero) : 46D49C8D
AccurateRip signature : 0D2FCF74
->Accurately ripped! (confidence 1)
Statistics
Read error : 0
Skipped (treated as error) : 0
Edge jitter error (maybe fixed) : 0
Atom jitter error (maybe fixed) : 0
Drift error (maybe fixed) : 0
Dropped bytes error (maybe fixed) : 0
Duplicated bytes error (maybe fixed) : 0
Inconsistency in error sectors : 0
Track 10
Filename : /Users/edward/Documents/Azureus Downloads/10 - Saylor Sandham's Sister.flac
CRC32 hash (test run) : 91B130FF
CRC32 hash : 91B130FF
CRC32 hash (skip zero) : 3FBAB81A
AccurateRip signature : B021338E
->Accurately ripped! (confidence 1)
Statistics
Read error : 0
Skipped (treated as error) : 0
Edge jitter error (maybe fixed) : 0
Atom jitter error (maybe fixed) : 0
Drift error (maybe fixed) : 0
Dropped bytes error (maybe fixed) : 0
Duplicated bytes error (maybe fixed) : 0
Inconsistency in error sectors : 0
Track 11
Filename : /Users/edward/Documents/Azureus Downloads/11 - Bonnie & Clyde.flac
CRC32 hash (test run) : 1C6DB70A
CRC32 hash : 1C6DB70A
CRC32 hash (skip zero) : 0BE89762
AccurateRip signature : 17C4D576
->Accurately ripped! (confidence 1)
Statistics
Read error : 0
Skipped (treated as error) : 0
Edge jitter error (maybe fixed) : 0
Atom jitter error (maybe fixed) : 0
Drift error (maybe fixed) : 0
Dropped bytes error (maybe fixed) : 0
Duplicated bytes error (maybe fixed) : 0
Inconsistency in error sectors : 0
Track 12
Filename : /Users/edward/Documents/Azureus Downloads/12 - Sit On Down.flac
CRC32 hash (test run) : AA3F62A1
CRC32 hash : AA3F62A1
CRC32 hash (skip zero) : 425BADE4
AccurateRip signature : CCEE8C58
->Accurately ripped! (confidence 1)
Statistics
Read error : 0
Skipped (treated as error) : 0
Edge jitter error (maybe fixed) : 0
Atom jitter error (maybe fixed) : 0
Drift error (maybe fixed) : 0
Dropped bytes error (maybe fixed) : 0
Duplicated bytes error (maybe fixed) : 0
Inconsistency in error sectors : 0
Track 13
Filename : /Users/edward/Documents/Azureus Downloads/13 - Knoeck.flac
CRC32 hash (test run) : 206DE07E
CRC32 hash : 206DE07E
CRC32 hash (skip zero) : DEC92819
AccurateRip signature : 7DCB7AF0
->Accurately ripped! (confidence 1)
Statistics
Read error : 0
Skipped (treated as error) : 0
Edge jitter error (maybe fixed) : 0
Atom jitter error (maybe fixed) : 0
Drift error (maybe fixed) : 0
Dropped bytes error (maybe fixed) : 0
Duplicated bytes error (maybe fixed) : 0
Inconsistency in error sectors : 0
Track 14
Filename : /Users/edward/Documents/Azureus Downloads/14 - Man Or Mouse.flac
CRC32 hash (test run) : 77A8B3B1
CRC32 hash : 77A8B3B1
CRC32 hash (skip zero) : 38DBA427
AccurateRip signature : 5FC646A2
->Accurately ripped! (confidence 1)
Statistics
Read error : 0
Skipped (treated as error) : 0
Edge jitter error (maybe fixed) : 0
Atom jitter error (maybe fixed) : 0
Drift error (maybe fixed) : 0
Dropped bytes error (maybe fixed) : 0
Duplicated bytes error (maybe fixed) : 0
Inconsistency in error sectors : 0
Track 15
Filename : /Users/edward/Documents/Azureus Downloads/15 - New Guitar.flac
CRC32 hash (test run) : 19B809E3
CRC32 hash : 19B809E3
CRC32 hash (skip zero) : 49383568
AccurateRip signature : 69C56878
->Accurately ripped! (confidence 1)
Statistics
Read error : 0
Skipped (treated as error) : 0
Edge jitter error (maybe fixed) : 0
Atom jitter error (maybe fixed) : 0
Drift error (maybe fixed) : 0
Dropped bytes error (maybe fixed) : 0
Duplicated bytes error (maybe fixed) : 0
Inconsistency in error sectors : 0
Track 16
Filename : /Users/edward/Documents/Azureus Downloads/16 - What Have You Done To Your Face?.flac
CRC32 hash (test run) : D57C0868
CRC32 hash : D57C0868
CRC32 hash (skip zero) : A117E9B2
AccurateRip signature : 3458709C
->Accurately ripped! (confidence 1)
Statistics
Read error : 0
Skipped (treated as error) : 0
Edge jitter error (maybe fixed) : 0
Atom jitter error (maybe fixed) : 0
Drift error (maybe fixed) : 0
Dropped bytes error (maybe fixed) : 0
Duplicated bytes error (maybe fixed) : 0
Inconsistency in error sectors : 0
Track 17
Filename : /Users/edward/Documents/Azureus Downloads/17 - Vapamou Rire.flac
CRC32 hash (test run) : 9F603323
CRC32 hash : 9F603323
CRC32 hash (skip zero) : 506BB410
AccurateRip signature : 24F98580
->Accurately ripped! (confidence 1)
Statistics
Read error : 0
Skipped (treated as error) : 0
Edge jitter error (maybe fixed) : 0
Atom jitter error (maybe fixed) : 0
Drift error (maybe fixed) : 0
Dropped bytes error (maybe fixed) : 0
Duplicated bytes error (maybe fixed) : 0
Inconsistency in error sectors : 0
Track 18
Filename : /Users/edward/Documents/Azureus Downloads/18 - Balloon Animal Suicide (Big Blue Ribbons).flac
CRC32 hash (test run) : FEBB5C08
CRC32 hash : FEBB5C08
CRC32 hash (skip zero) : 898B6183
AccurateRip signature : 92EFD99F
->Accurately ripped! (confidence 1)
Statistics
Read error : 0
Skipped (treated as error) : 0
Edge jitter error (maybe fixed) : 0
Atom jitter error (maybe fixed) : 0
Drift error (maybe fixed) : 0
Dropped bytes error (maybe fixed) : 0
Duplicated bytes error (maybe fixed) : 0
Inconsistency in error sectors : 0
No errors occurred
End of status report
 
Содержание индексной карты (.CUE)
TITLE "Twisted Cabaret Vol.1"
REM GENRE "Alternative & Punk"
REM DATE 2010
REM DISCNUMBER 1
REM TOTALDISCS 1
REM DISCID 07110912
FILE "CDImage.wav" WAVE
TRACK 01 AUDIO
TITLE "Start A Fire"
PERFORMER "The Tiger Lillies"
SONGWRITER "S.E.V.A."
ISRC GB2MA9901050
INDEX 01 00:00:00
TRACK 02 AUDIO
TITLE "The Earlie King"
PERFORMER "Baby Dee"
SONGWRITER "S.E.V.A."
ISRC US2MA0801060
INDEX 01 02:14:42
TRACK 03 AUDIO
TITLE "Have You Seen My Sister Evelyn?"
PERFORMER "Evelyn Evelyn"
SONGWRITER "S.E.V.A."
ISRC US2MA0901070
INDEX 01 07:37:35
TRACK 04 AUDIO
TITLE "The Sweetest Songs"
PERFORMER "The Real Tuesday Weld"
SONGWRITER "S.E.V.A."
ISRC GB2MA0601080
INDEX 01 09:50:30
TRACK 05 AUDIO
TITLE "Bank Of Boston Beauty Queen"
PERFORMER "The Dresden Dolls"
SONGWRITER "S.E.V.A."
ISRC US2MA0201090
INDEX 01 14:12:26
TRACK 06 AUDIO
TITLE "Da Da Da Die"
PERFORMER "Budam"
SONGWRITER "S.E.V.A."
ISRC DK2MA0700970
INDEX 01 19:55:66
TRACK 07 AUDIO
TITLE "J'Aurais AimГ©"
PERFORMER "Maxi Monster Music Show"
SONGWRITER "S.E.V.A."
ISRC FR2MA0901100
INDEX 01 23:37:34
TRACK 08 AUDIO
TITLE "The Dying Oilman"
PERFORMER "The Residents"
SONGWRITER "S.E.V.A."
ISRC US2MA9401110
INDEX 01 27:13:54
TRACK 09 AUDIO
TITLE "Gekko Renka"
PERFORMER "Kokusyoku Sumire"
SONGWRITER "S.E.V.A."
ISRC FR2MA0701120
INDEX 01 30:23:73
TRACK 10 AUDIO
TITLE "Saylor Sandham's Sister"
PERFORMER "Katzenjammer Kabarett"
SONGWRITER "S.E.V.A."
ISRC FR2MA0901130
INDEX 01 34:54:40
TRACK 11 AUDIO
TITLE "Bonnie & Clyde"
PERFORMER "Vermillion Lies"
SONGWRITER "S.E.V.A."
ISRC US2MA0901140
INDEX 01 39:13:29
TRACK 12 AUDIO
TITLE "Sit On Down"
PERFORMER "Little Annie"
SONGWRITER "S.E.V.A."
ISRC GB2MA0701150
INDEX 01 41:53:66
TRACK 13 AUDIO
TITLE "Knoeck"
PERFORMER "De Kift"
SONGWRITER "S.E.V.A."
ISRC NL2MA0701160
INDEX 01 45:10:45
TRACK 14 AUDIO
TITLE "Man Or Mouse"
PERFORMER "The Legendary Pink Dots"
SONGWRITER "S.E.V.A."
ISRC FR2MA0901170
INDEX 01 49:08:71
TRACK 15 AUDIO
TITLE "New Guitar"
PERFORMER "Aranos"
SONGWRITER "S.E.V.A."
ISRC FR2MA9901180
INDEX 01 54:59:40
TRACK 16 AUDIO
TITLE "What Have You Done To Your Face?"
PERFORMER "Marcella and The Forget Me Nots"
SONGWRITER "S.E.V.A."
ISRC FR2MA0901190
INDEX 01 59:11:65
TRACK 17 AUDIO
TITLE "Vapamou Rire"
PERFORMER "el TiGeR CoMiCs GRoUP & Joel Hubaut"
SONGWRITER "S.E.V.A."
ISRC FR2MA0901200
INDEX 01 62:59:51
TRACK 18 AUDIO
TITLE "Balloon Animal Suicide (Big Blue Ribbons)"
PERFORMER "Little White Rabbits Still Bleed Red"
SONGWRITER "S.E.V.A."
ISRC US2MA0701210
INDEX 01 68:06:47
 
Об альбоме (сборнике)
Twisted Cabaret, Vol. 1 collects 18 contemporary cabaret-style pop gems that run the gamut from deliciously wicked (Baby Dee's "The Earlie King") to flat-out nuts (Little White Rabbits Still Bleed Red's "Balloon Animal Suicide [Big Blue Ribbons]"). It's a novel idea for a mix, and one with a specific audience in mind. Whether it's the Gypsy-fueled fury of Kokusyoku Sumire's "Gekko Renka" or the classic electronic paranoia of the Residents ("The Dying Oilman"), Twisted Cabaret provides a nice soundtrack for whatever fetish needs tending to. ~ James Christopher Monger
Willkommen, bienvenue, welcome, To the Twisted Cabaret Vol. 1.; the ultimate international neo-underground compilation of bands that use the cabaret style to spread the word of freedom and freakiness. Features rare and exclusive tracks from artists including The Residents, The Legendary Pink Dots and The Dresden Dolls. Also available in a Deluxe Edition which includes the regular audio CD, plus a full length DVD of music videos and live performances of the artists presenting the equally important visual side of their work.
По всем вопросам пишите личное сообщение пользователю M0p94ok.
09:13
189
Нет комментариев. Ваш будет первым!