Вы используете незарегистрированную версию компонента "Вкладки"!

Поиск

(Modern Creative, Contemporary Jazz) Bo Stief One Song III (Lelo Nika, Paolo Russo, Bo Stief) - First Time - 2002, FLAC (tracks+.cue), lossless

(Modern Creative, Contemporary Jazz) Bo Stief One Song III (Lelo Nika, Paolo Russo, Bo Stief) - First Time - 2002, FLAC (tracks+.cue), lossless
Треклист:
Bo Stief One Song III / First Time
Жанр: Modern Creative, Contemporary Jazz
Страна-производитель диска: Denmark
Год издания: 2002
Издатель (лейбл): Stunt Records
Номер по каталогу: STUCD 02162
Аудиокодек: FLAC (*.flac)
Тип рипа: tracks+.cue
Битрейт аудио: lossless
Продолжительность: 43:15
Источник (релизер): CD
Наличие сканов в содержимом раздачи: да
Треклист:
01 - First Time (03:00)
02 - White Clown (05:19)
03 - Leloland (03:25)
04 - La Danza Della Zanzarra / Mosquito Dance (05:57)
05 - Soundtrack To Denmark (03:06)
06 - Now (05:59)
07 - It's Raining (03:31)
08 - In The Morning Part 1 (01:50)
09 - In The Morning Part 2 (03:50)
10 - Don't Hit 1 (00:31)
11 - Katherine (01:38)
12 - Don't Hit 2 (01:53)
13 - Hope (03:08)
 
Лог создания рипа
Exact Audio Copy V1.0 beta 2 from 29. April 2011
EAC extraction logfile from 16. April 2012, 10:08
Bo Stief One Song III. / First Time
Used drive : Optiarc DVD RW AD-7240S Adapter: 2 ID: 0
Read mode : Secure
Utilize accurate stream : Yes
Defeat audio cache : Yes
Make use of C2 pointers : No
Read offset correction : 48
Overread into Lead-In and Lead-Out : No
Fill up missing offset samples with silence : Yes
Delete leading and trailing silent blocks : No
Null samples used in CRC calculations : Yes
Used interface : Installed external ASPI interface
Gap handling : Appended to previous track
Used output format : User Defined Encoder
Selected bitrate : 128 kBit/s
Quality : High
Add ID3 tag : No
Command line compressor : C:\Program Files\Exact Audio Copy\FLAC\FLAC.EXE
Additional command line options : -8 -V -T "ARTIST=%artist%" -T "TITLE=%title%" -T "ALBUM=%albumtitle%" -T "DATE=%year%" -T "TRACKNUMBER=%tracknr%" -T "GENRE=%genre%" -T "COMMENT=%comment%" -T "BAND=%albuminterpret%" -T "COMPOSER=%composer%" %haslyrics%--ta
TOC of the extracted CD
Track | Start | Length | Start sector | End sector
---------------------------------------------------------
1 | 0:00.00 | 3:00.55 | 0 | 13554
2 | 3:00.55 | 5:19.05 | 13555 | 37484
3 | 8:19.60 | 3:25.55 | 37485 | 52914
4 | 11:45.40 | 5:57.65 | 52915 | 79754
5 | 17:43.30 | 3:06.22 | 79755 | 93726
6 | 20:49.52 | 5:59.65 | 93727 | 120716
7 | 26:49.42 | 3:31.55 | 120717 | 136596
8 | 30:21.22 | 1:50.47 | 136597 | 144893
9 | 32:11.69 | 3:50.48 | 144894 | 162191
10 | 36:02.42 | 0:31.36 | 162192 | 164552
11 | 36:34.03 | 1:38.32 | 164553 | 171934
12 | 38:12.35 | 1:53.72 | 171935 | 180481
13 | 40:06.32 | 3:08.61 | 180482 | 194642
Track 1
Filename C:\Bo Sief One Song III (2002) - First Time\01 First Time.wav
Pre-gap length 0:00:02.00
Peak level 87.1 %
Extraction speed 2.2 X
Track quality 100.0 %
Test CRC 85D74CB2
Copy CRC 85D74CB2
Accurately ripped (confidence 3) [DBF1ECD4] (AR v1)
Copy OK
Track 2
Filename C:\Bo Sief One Song III (2002) - First Time\02 White Clown.wav
Peak level 97.2 %
Extraction speed 2.4 X
Track quality 99.9 %
Test CRC D84B7A85
Copy CRC D84B7A85
Accurately ripped (confidence 3) [B53D9BF0] (AR v1)
Copy OK
Track 3
Filename C:\Bo Sief One Song III (2002) - First Time\03 Leloland.wav
Peak level 82.0 %
Extraction speed 2.8 X
Track quality 100.0 %
Test CRC AC13ED57
Copy CRC AC13ED57
Accurately ripped (confidence 3) [E6CCEE39] (AR v1)
Copy OK
Track 4
Filename C:\Bo Sief One Song III (2002) - First Time\04 La Danza Della Zanzarra , Mosquito Dance.wav
Peak level 87.7 %
Extraction speed 3.0 X
Track quality 99.9 %
Test CRC 28BAEA36
Copy CRC 28BAEA36
Accurately ripped (confidence 3) [8B1AC05F] (AR v1)
Copy OK
Track 5
Filename C:\Bo Sief One Song III (2002) - First Time\05 Soundtrack To Denmark.wav
Peak level 100.0 %
Extraction speed 3.2 X
Track quality 100.0 %
Test CRC A59A8C86
Copy CRC A59A8C86
Accurately ripped (confidence 3) [2288C806] (AR v1)
Copy OK
Track 6
Filename C:\Bo Sief One Song III (2002) - First Time\06 Now.wav
Peak level 97.2 %
Extraction speed 3.4 X
Track quality 99.9 %
Test CRC 0C9EAC9A
Copy CRC 0C9EAC9A
Accurately ripped (confidence 3) [E43FB800] (AR v1)
Copy OK
Track 7
Filename C:\Bo Sief One Song III (2002) - First Time\07 It's Raining.wav
Peak level 85.8 %
Extraction speed 3.7 X
Track quality 100.0 %
Test CRC EA4B7AD2
Copy CRC EA4B7AD2
Accurately ripped (confidence 3) [8D987BB4] (AR v1)
Copy OK
Track 8
Filename C:\Bo Sief One Song III (2002) - First Time\08 In The Morning Part 1.wav
Peak level 74.9 %
Extraction speed 3.4 X
Track quality 100.0 %
Test CRC 5E4A0368
Copy CRC 5E4A0368
Accurately ripped (confidence 3) [41202A16] (AR v1)
Copy OK
Track 9
Filename C:\Bo Sief One Song III (2002) - First Time\09 In The Morning Part 2.wav
Pre-gap length 0:00:00.01
Peak level 100.0 %
Extraction speed 4.0 X
Track quality 100.0 %
Test CRC ACFA1BA7
Copy CRC ACFA1BA7
Accurately ripped (confidence 3) [E33787C4] (AR v1)
Copy OK
Track 10
Filename C:\Bo Sief One Song III (2002) - First Time\10 Don't Hit 1.wav
Peak level 97.2 %
Extraction speed 2.1 X
Track quality 100.0 %
Test CRC 5DF5F85A
Copy CRC 5DF5F85A
Accurately ripped (confidence 3) [F9090B14] (AR v1)
Copy OK
Track 11
Filename C:\Bo Sief One Song III (2002) - First Time\11 Katherine.wav
Peak level 86.3 %
Extraction speed 3.5 X
Track quality 100.0 %
Test CRC 27391FF3
Copy CRC 27391FF3
Accurately ripped (confidence 3) [B52ED2E4] (AR v1)
Copy OK
Track 12
Filename C:\Bo Sief One Song III (2002) - First Time\12 Don't Hit 2.wav
Peak level 97.2 %
Extraction speed 3.6 X
Track quality 100.0 %
Test CRC 5715B89A
Copy CRC 5715B89A
Accurately ripped (confidence 3) [466429EA] (AR v1)
Copy OK
Track 13
Filename C:\Bo Sief One Song III (2002) - First Time\13 Hope.wav
Peak level 97.2 %
Extraction speed 4.1 X
Track quality 100.0 %
Test CRC 63386B4A
Copy CRC 63386B4A
Accurately ripped (confidence 3) [9AA4A56A] (AR v1)
Copy OK
All tracks accurately ripped
No errors occurred
End of status report
==== Log checksum 3A1E4BFCC308F4A7D38727E88DC8DF3674A2375EC3D9C54E036B2324DBBB948F ====
 
Содержание индексной карты (.CUE)
REM GENRE Jazz
REM DATE 2002
REM DISCID 9B0A230D
REM COMMENT "ExactAudioCopy v1.0b2"
PERFORMER "Bo Stief One Song III."
TITLE "First Time"
FILE "01 First Time.wav" WAVE
TRACK 01 AUDIO
TITLE "First Time"
PERFORMER "Bo Stief One Song III."
ISRC DKBDB0202601
INDEX 01 00:00:00
FILE "02 White Clown.wav" WAVE
TRACK 02 AUDIO
TITLE "White Clown"
PERFORMER "Bo Stief One Song III."
ISRC DKBDB0202602
INDEX 01 00:00:00
FILE "03 Leloland.wav" WAVE
TRACK 03 AUDIO
TITLE "Leloland"
PERFORMER "Bo Stief One Song III."
ISRC DKBDB0202603
INDEX 01 00:00:00
FILE "04 La Danza Della Zanzarra , Mosquito Dance.wav" WAVE
TRACK 04 AUDIO
TITLE "La Danza Della Zanzarra / Mosquito Dance"
PERFORMER "Bo Stief One Song III."
INDEX 01 00:00:00
FILE "05 Soundtrack To Denmark.wav" WAVE
TRACK 05 AUDIO
TITLE "Soundtrack To Denmark"
PERFORMER "Bo Stief One Song III."
ISRC DKBDB0202605
INDEX 01 00:00:00
FILE "06 Now.wav" WAVE
TRACK 06 AUDIO
TITLE "Now"
PERFORMER "Bo Stief One Song III."
ISRC DKBDB0202606
INDEX 01 00:00:00
FILE "07 It's Raining.wav" WAVE
TRACK 07 AUDIO
TITLE "It's Raining"
PERFORMER "Bo Stief One Song III."
ISRC DKBDB0202607
INDEX 01 00:00:00
FILE "08 In The Morning Part 1.wav" WAVE
TRACK 08 AUDIO
TITLE "In The Morning Part 1"
PERFORMER "Bo Stief One Song III."
ISRC DKBDB0202608
INDEX 01 00:00:00
TRACK 09 AUDIO
TITLE "In The Morning Part 2"
PERFORMER "Bo Stief One Song III."
ISRC DKBDB0202609
INDEX 00 01:50:46
FILE "09 In The Morning Part 2.wav" WAVE
INDEX 01 00:00:00
FILE "10 Don't Hit 1.wav" WAVE
TRACK 10 AUDIO
TITLE "Don't Hit 1"
PERFORMER "Bo Stief One Song III."
ISRC DKBDB0202610
INDEX 01 00:00:00
FILE "11 Katherine.wav" WAVE
TRACK 11 AUDIO
TITLE "Katherine"
PERFORMER "Bo Stief One Song III."
ISRC DKBDB0202611
INDEX 01 00:00:00
FILE "12 Don't Hit 2.wav" WAVE
TRACK 12 AUDIO
TITLE "Don't Hit 2"
PERFORMER "Bo Stief One Song III."
ISRC DKBDB0202612
INDEX 01 00:00:00
FILE "13 Hope.wav" WAVE
TRACK 13 AUDIO
TITLE "Hope"
PERFORMER "Bo Stief One Song III."
ISRC DKBDB0202613
INDEX 01 00:00:00
 
Об исполнителе (группе)
Bo Stief is an established name on the international and danish music scene. He is one of the few who master both the electric and acoustic bass the danish virtuos way. He started his musical career in the legendary Jazzhus Montmartre, where he accompanied names like Ben Webster, Stuff Smith, Roland Kirk, Yousef Lateef, New York Contemporary Five, Dexter Gordon, Roy Eldridge, Kenny Dorham, Kenny Drew and many others.
In 1966, Don Cherry took Bo Stief into his quintet with among others Gato Barbieri and made a tour of european cities including Holland, Belgium, Germany and Italy. Bo Stief has been affiliated with Palle Mikkelborg since 1965. They have worked together many times, among others in the Riel/Mikkelborg Quintet that won 1st. prize at the Montreux Jazz Festival. They also played at the Newport Jazz Festival (U. S. A.). Later, Bo Stief played in V8, Entrance, and at the recording session of Palle Mikkelborg’s composition «Aura» with Miles Davis, where he acted both as bass-player and co-producer. His assotiation with Palle Mikkelborg continued and led to his appearance on both CD «Anything but grey» and the following concert tour. Since 07 they are back making music . Bo Stief has been active on the international music scene since the early 70’s. He made a strong impression as member of the pioneering «Pork Pie» with among others Philippe Catherine, guitar, Charlie Mariano, sax, and Jasper Van’t Hof, keyboards. Bo Stief is still working with these people, especially with Jasper Van’t Hof, with whom he has worked closely since 1974. For many years Bo Stief was also a member of all-star big band Peter Herboltzheimers Rythm and Brass Combination where he backed names like Benny Goodman, Ray Charles, Sammy Davis Jr., Manhattan Transfer, Gary Burton, Astrud Gilberto, Clark Terry, Chuck Finiey, Grady Tate and many others. Bo Stief has also enriched the Danish rock scene where he has often been heard with among others Sebastian, Rainbow Band, Aske Bentzon, Sanne Salomonsen (he produced her CD «Precious Moments»), Kasper Winding, and Halberg/Larsen. Bo Stief has, on the whole, toured every corner of Denmark with musicians representing all genres. Bo Stief has, in Scandinavia, worked with Arne Domnerus, Rune Gustafsson, Tommy Körberg, Tolvan Big Band, Tore Brunborg, Jon Eberson, Eje Thelin, Lars Gullin, Terje Rypdal, Jon Christensen, Audun Klieve and Jon Balke. He’s been involved in a project with Jan Garbarek and has played with George Russells nordic all-star band. Aside from extensive projects Bo Stief has also played with smaller constellations in numerous international concert tours, festivals, studio productions, and tv-recordings with the likes of John Scofield, Stan Getz, Chet Baker, Sonny Stitt, Toots Thielemanns, Joe Henderson, Dizzy Gillespie, Ronny Scott, Dexter Gordon, Eddie Harris, Art Farmer, and Ernie Watts. Since 1980 Bo Stief has led his own bands (Bo Stief 5, Chasing Dreams, Dream Machine, Soundtrack, New Dreams). CD´s: Hidden Frontiers 86, Chasing Dreams (Sony Columbia 94) Heart and Destiny 99. Outstanding guitarist Poul Halberg has been an ongoing working partner. Bo Stief has manifested himself in these bands as composer and bandleader. He is a creative musician, always on the lookout for new boundaries to cross and inspired by what was, what is, and what is yet to come. Bo Stief’s music is easily recognized by the personal sound of his bass and his philosophical attitudes toward life close to the midnight sun. Composed Matisse Music 96 and 06-.
Since 97 Bo Stief has succesfully been leading Bo Stief «One Song» III. A multi etnical musical meeting point for musicians from all over the world. The latest issue of Bo Stief «One Song» III is with the harmonica virtuoso Lelo Nika and the fantastic Italian piano player Paolo Russo. The trio´s cd «First Time» obtained four stars in the famous «Downbeat» Magazine.
Bo Stief has been involved in duo projects with the Norvegian bass player Arrild Andersen and Swedish Palle Danielson. 2004 he started to play with the American bass player Steve Swallow. 2005 Bo Stief was honoured with the Django d´Or price. He has always been engaged and interested in new ways of musical approach. His curiosity is an essential drive and his constant dissolution of (prevailing) musical limitations always brings challenging and exiting results. In short, Bo Stief’s intention is to lift boundaries. Bo Stief was named Music person of the Year in 1989 and received DJBFA’s award in 1990. Two of Bo Stief’s compositions are at the moment being used by the United Nations for their public relations film. Bo Stief is also the composer of jingles for danish prime time programs «Hvornår var det nu det var» and «Fredags Kanalen» for DR TV and Denmarks Radio, and in addition creator and primus motor for a series of concerts under the heading «The Nordic Tone». Bo Stief has acted as band-doctor and has held bass clinics at home and abroad. 06 Danish state grant. To the long list of artists already mentioned in this biography can be added: Eddie «Lockjaw» Davis Buddy Tate, Carla Bley, Jimmy Raney, Steve Lacy, Thad Jones, Art Taylor, Johnny Griffin, Lee Konitz, Zooot Sims, Al Cohn, Mary Lou Williams, Joe Newman, Albert Mangelsdorf, Terry Gibbs, Cat Anderson, Frank Rossolini, Shorty Rogers, Alphonse Mouzon, Radiojazzgruppen, Jimmy and Albert Heath, Albert Ayler, Bob Malach, Larry Coryell, Adam Nussbaum, 2XEBU concert Band, Pili Pili, Wild Bill Davidson, Charlie Shavers, Ira Sullivan, Joe Henderson, Phil Woods, Brew More etc.
 
Состав
Lelo Nika - accordion
Paolo Russo - piano, keys
Bo Stief - acoustic and electric bass
По всем вопросам пишите личное сообщение пользователю M0p94ok.
00:10
176
Нет комментариев. Ваш будет первым!