Вы используете незарегистрированную версию компонента "Вкладки"!

Поиск

(Avant-Garde Jazz) Steve Lacy - More Monk {1989, Remastered} - 2011, FLAC (tracks+.cue), lossless

Треклист:
•Steve Lacy - More Monk {1989, Remastered}•
Жанр: Avant-Garde Jazz
Год издания: 2011
Издатель (лейбл): Soul Note
Аудиокодек: FLAC (*.flac)
Тип рипа: tracks+.cue
Битрейт аудио: lossless
Продолжительность: 00:55:44
Источник (релизер): mishka1981
Наличие сканов в содержимом раздачи: да
Треклист:
01. Shuffle Boil [04:41]
02. Straight No Chaser [04:31]
03. Off Minor [05:20]
04. Ruby My Dear [06:31]
05. In Walked Bud [04:16]
06. Trinkle Tinkle [05:01]
07. Comin' On The Hudson [06:27]
08. Introspection [06:10]
09. Jackie-Ing [04:10]
10. Crepuscule With Nellie [04:00]
11. Bye-Ya [04:32]
Personnel:
Steve Lacy - ss
 
Лог создания рипа
Exact Audio Copy V1.0 beta 1 from 15. November 2010
EAC extraction logfile from 19. April 2012, 13:14
Steve Lacy / More Monk
Used drive : Optiarc DVD RW AD-7710H Adapter: 1 ID: 0
Read mode : Secure
Utilize accurate stream : Yes
Defeat audio cache : Yes
Make use of C2 pointers : No
Read offset correction : 48
Overread into Lead-In and Lead-Out : No
Fill up missing offset samples with silence : Yes
Delete leading and trailing silent blocks : No
Null samples used in CRC calculations : Yes
Used interface : Native Win32 interface for Win NT & 2000
Gap handling : Appended to previous track
Used output format : User Defined Encoder
Selected bitrate : 896 kBit/s
Quality : High
Add ID3 tag : No
Command line compressor : C:\Program Files\Exact Audio Copy\FLAC\FLAC.EXE
Additional command line options : -8 -V -T "ARTIST=%a" -T "TITLE=%t" -T "ALBUM=%g" -T "DATE=%y" -T "TRACKNUMBER=%n" -T "GENRE=%m" -T "COMMENT=%e" %j--picture="%i"%j %s -o %d
TOC of the extracted CD
Track | Start | Length | Start sector | End sector
---------------------------------------------------------
1 | 0:00.00 | 4:41.74 | 0 | 21148
2 | 4:41.74 | 4:31.38 | 21149 | 41511
3 | 9:13.37 | 5:20.40 | 41512 | 65551
4 | 14:34.02 | 6:31.43 | 65552 | 94919
5 | 21:05.45 | 4:16.18 | 94920 | 114137
6 | 25:21.63 | 5:01.29 | 114138 | 136741
7 | 30:23.17 | 6:27.44 | 136742 | 165810
8 | 36:50.61 | 6:10.44 | 165811 | 193604
9 | 43:01.30 | 4:10.04 | 193605 | 212358
10 | 47:11.34 | 4:00.62 | 212359 | 230420
11 | 51:12.21 | 4:32.38 | 230421 | 250858
Track 1
Filename C:\MY RIPS\01 - Shuffle Boil.wav
Pre-gap length 0:00:02.00
Peak level 95.2 %
Extraction speed 2.9 X
Track quality 100.0 %
Test CRC E86D1B0A
Copy CRC E86D1B0A
Accurately ripped (confidence 1) [24ADA2DD]
Copy OK
Track 2
Filename C:\MY RIPS\02 - Straight No Chaser.wav
Pre-gap length 0:00:02.68
Peak level 95.2 %
Extraction speed 3.3 X
Track quality 100.0 %
Test CRC 5321B99E
Copy CRC 5321B99E
Accurately ripped (confidence 1) [FC5DC6B7]
Copy OK
Track 3
Filename C:\MY RIPS\03 - Off Minor.wav
Pre-gap length 0:00:06.24
Peak level 95.2 %
Extraction speed 3.7 X
Track quality 100.0 %
Test CRC 00615BC1
Copy CRC 00615BC1
Accurately ripped (confidence 1) [52BBBA27]
Copy OK
Track 4
Filename C:\MY RIPS\04 - Ruby My Dear.wav
Pre-gap length 0:00:08.44
Peak level 93.8 %
Extraction speed 4.1 X
Track quality 100.0 %
Test CRC 98DFEAC0
Copy CRC 98DFEAC0
Accurately ripped (confidence 1) [9724F3A3]
Copy OK
Track 5
Filename C:\MY RIPS\05 - In Walked Bud.wav
Pre-gap length 0:00:06.65
Peak level 95.2 %
Extraction speed 4.2 X
Track quality 100.0 %
Test CRC 75E99F2A
Copy CRC 75E99F2A
Accurately ripped (confidence 1) [124A8133]
Copy OK
Track 6
Filename C:\MY RIPS\06 - Trinkle Tinkle.wav
Pre-gap length 0:00:05.25
Peak level 95.2 %
Extraction speed 4.5 X
Track quality 100.0 %
Test CRC 3621C319
Copy CRC 3621C319
Accurately ripped (confidence 1) [23348537]
Copy OK
Track 7
Filename C:\MY RIPS\07 - Comin' On The Hudson.wav
Pre-gap length 0:00:04.65
Peak level 76.6 %
Extraction speed 5.0 X
Track quality 100.0 %
Test CRC 3510B86A
Copy CRC 3510B86A
Accurately ripped (confidence 1) [870E7E60]
Copy OK
Track 8
Filename C:\MY RIPS\08 - Introspection.wav
Pre-gap length 0:00:09.55
Peak level 95.2 %
Extraction speed 4.6 X
Track quality 99.9 %
Test CRC D08EC932
Copy CRC D08EC932
Accurately ripped (confidence 1) [EAEC838B]
Copy OK
Track 9
Filename C:\MY RIPS\09 - Jackie-Ing.wav
Pre-gap length 0:00:07.35
Peak level 95.2 %
Extraction speed 4.3 X
Track quality 99.9 %
Test CRC F651DA1B
Copy CRC F651DA1B
Accurately ripped (confidence 1) [07E6C579]
Copy OK
Track 10
Filename C:\MY RIPS\10 - Crepuscule With Nellie.wav
Pre-gap length 0:00:07.05
Peak level 83.0 %
Extraction speed 5.4 X
Track quality 100.0 %
Test CRC 50CBED50
Copy CRC 50CBED50
Accurately ripped (confidence 1) [DFD05E93]
Copy OK
Track 11
Filename C:\MY RIPS\11 - Bye-Ya.wav
Pre-gap length 0:00:05.05
Peak level 94.5 %
Extraction speed 5.6 X
Track quality 100.0 %
Test CRC 44D8A02F
Copy CRC 44D8A02F
Accurately ripped (confidence 1) [B2AEA384]
Copy OK
All tracks accurately ripped
No errors occurred
End of status report
==== Log checksum 53CC6226ECB58EFA8D9D93643A743D41970C36762B704A00B416412B44B817BE ====
 
Содержание индексной карты (.CUE)
REM DISCID 950D100B
REM COMMENT "ExactAudioCopy v1.0b1"
PERFORMER "Steve Lacy"
TITLE "More Monk"
FILE "01 - Shuffle Boil.wav" WAVE
TRACK 01 AUDIO
TITLE "Shuffle Boil"
PERFORMER "Steve Lacy"
FLAGS DCP
INDEX 01 00:00:00
TRACK 02 AUDIO
TITLE "Straight No Chaser"
PERFORMER "Steve Lacy"
FLAGS DCP
INDEX 00 04:39:06
FILE "02 - Straight No Chaser.wav" WAVE
INDEX 01 00:00:00
TRACK 03 AUDIO
TITLE "Off Minor"
PERFORMER "Steve Lacy"
FLAGS DCP
INDEX 00 04:25:14
FILE "03 - Off Minor.wav" WAVE
INDEX 01 00:00:00
TRACK 04 AUDIO
TITLE "Ruby My Dear"
PERFORMER "Steve Lacy"
FLAGS DCP
INDEX 00 05:11:71
FILE "04 - Ruby My Dear.wav" WAVE
INDEX 01 00:00:00
TRACK 05 AUDIO
TITLE "In Walked Bud"
PERFORMER "Steve Lacy"
FLAGS DCP
INDEX 00 06:24:53
FILE "05 - In Walked Bud.wav" WAVE
INDEX 01 00:00:00
TRACK 06 AUDIO
TITLE "Trinkle Tinkle"
PERFORMER "Steve Lacy"
FLAGS DCP
INDEX 00 04:10:68
FILE "06 - Trinkle Tinkle.wav" WAVE
INDEX 01 00:00:00
TRACK 07 AUDIO
TITLE "Comin' On The Hudson"
PERFORMER "Steve Lacy"
FLAGS DCP
INDEX 00 04:56:39
FILE "07 - Comin' On The Hudson.wav" WAVE
INDEX 01 00:00:00
TRACK 08 AUDIO
TITLE "Introspection"
PERFORMER "Steve Lacy"
FLAGS DCP
INDEX 00 06:17:64
FILE "08 - Introspection.wav" WAVE
INDEX 01 00:00:00
TRACK 09 AUDIO
TITLE "Jackie-Ing"
PERFORMER "Steve Lacy"
FLAGS DCP
INDEX 00 06:03:09
FILE "09 - Jackie-Ing.wav" WAVE
INDEX 01 00:00:00
TRACK 10 AUDIO
TITLE "Crepuscule With Nellie"
PERFORMER "Steve Lacy"
FLAGS DCP
INDEX 00 04:02:74
FILE "10 - Crepuscule With Nellie.wav" WAVE
INDEX 01 00:00:00
TRACK 11 AUDIO
TITLE "Bye-Ya"
PERFORMER "Steve Lacy"
FLAGS DCP
INDEX 00 03:55:57
FILE "11 - Bye-Ya.wav" WAVE
INDEX 01 00:00:00
Any questions -> support@pro-jazz.com. По всем вопросам пишите -> support@pro-jazz.com
00:10
211
Нет комментариев. Ваш будет первым!