Вы используете незарегистрированную версию компонента "Вкладки"!

Поиск

(Modern Creative, CIMP) Bruce Eisenbeil`s Crosscurrent Trio (J. Brunka, Ryan Sawyer) - Mural - 1999, FLAC (tracks+.cue), lossless

(Modern Creative, CIMP) Bruce Eisenbeil`s Crosscurrent Trio (J. Brunka, Ryan Sawyer) - Mural - 1999, FLAC (tracks+.cue), lossless
Треклист:
Bruce Eisenbeil`s Crosscurrent Trio (J. Brunka, Ryan Sawyer) - Mural
Жанр: Modern Creative, CIMP
Страна-производитель диска: USA
Год издания диска: 1999
Издатель (лейбл): CIMP
Номер по каталогу: CIMP #194
Страна: USA
Аудиокодек: FLAC (*.flac)
Тип рипа: tracks+.cue
Битрейт аудио: lossless
Продолжительность: 1:10:14
Источник (релизер): собственный
Наличие сканов в содержимом раздачи: есть
1 Wildflowers
2 Caesar
3 Woman With A Handful Of Rain
4 Prelude
5 Habeus Corpus
6 Chris V. Paradise
7 In Memory Of A.D. (High Relief)
8 Crucifixion
9 Blue Poles
 
Лог создания рипа
Exact Audio Copy V1.0 beta 3 from 29. August 2011
EAC extraction logfile from 25. February 2012, 20:18
Bruce Eisenbeil's Crosscurrent Trio / Mural
Used drive : SlimtypeDVD A DS8A5SH Adapter: 0 ID: 1
Read mode : Secure
Utilize accurate stream : Yes
Defeat audio cache : Yes
Make use of C2 pointers : No
Read offset correction : 6
Overread into Lead-In and Lead-Out : No
Fill up missing offset samples with silence : Yes
Delete leading and trailing silent blocks : No
Null samples used in CRC calculations : Yes
Used interface : Native Win32 interface for Win NT & 2000
Gap handling : Appended to previous track
Used output format : User Defined Encoder
Selected bitrate : 128 kBit/s
Quality : High
Add ID3 tag : No
Command line compressor : C:\Program Files (x86)\Exact Audio Copy\Flac\flac.exe
Additional command line options : -V -8 -T "Genre=%genre%" -T "Artist=%artist%" -T "Title=%title%" -T "Album=%albumtitle%" -T "Date=%year%" -T "Tracknumber=%tracknr%" -T "Comment=%comment%" %source%
TOC of the extracted CD
Track | Start | Length | Start sector | End sector
---------------------------------------------------------
1 | 0:00.00 | 7:24.37 | 0 | 33336
2 | 7:24.37 | 16:03.50 | 33337 | 105611
3 | 23:28.12 | 12:58.59 | 105612 | 164020
4 | 36:26.71 | 0:34.73 | 164021 | 166643
5 | 37:01.69 | 7:42.39 | 166644 | 201332
6 | 44:44.33 | 5:02.07 | 201333 | 223989
7 | 49:46.40 | 5:42.26 | 223990 | 249665
8 | 55:28.66 | 6:54.08 | 249666 | 280723
9 | 62:22.74 | 7:55.55 | 280724 | 316403
Track 1
Filename D:\Musak 2\Bruce Eisenbeil\Bruce Eisenbeil`s Crosscurrent Trio - Mural (1999)\01. Wildflowers.wav
Pre-gap length 0:00:02.00
Peak level 77.4 %
Extraction speed 1.3 X
Track quality 100.0 %
Test CRC 0346EE2A
Copy CRC 0346EE2A
Track not present in AccurateRip database
Copy OK
Track 2
Filename D:\Musak 2\Bruce Eisenbeil\Bruce Eisenbeil`s Crosscurrent Trio - Mural (1999)\02. Caesar.wav
Pre-gap length 0:00:02.57
Peak level 89.6 %
Extraction speed 1.8 X
Track quality 100.0 %
Test CRC 6FE51C7E
Copy CRC 6FE51C7E
Track not present in AccurateRip database
Copy OK
Track 3
Filename D:\Musak 2\Bruce Eisenbeil\Bruce Eisenbeil`s Crosscurrent Trio - Mural (1999)\03. Woman With A Handful Of Rain.wav
Pre-gap length 0:00:04.57
Peak level 82.3 %
Extraction speed 2.1 X
Track quality 100.0 %
Test CRC F2D20AFB
Copy CRC F2D20AFB
Track not present in AccurateRip database
Copy OK
Track 4
Filename D:\Musak 2\Bruce Eisenbeil\Bruce Eisenbeil`s Crosscurrent Trio - Mural (1999)\04. Prelude.wav
Pre-gap length 0:00:04.57
Peak level 41.4 %
Extraction speed 1.1 X
Track quality 100.0 %
Test CRC FB1B2931
Copy CRC FB1B2931
Track not present in AccurateRip database
Copy OK
Track 5
Filename D:\Musak 2\Bruce Eisenbeil\Bruce Eisenbeil`s Crosscurrent Trio - Mural (1999)\05. Habeus Corpus.wav
Peak level 99.4 %
Extraction speed 2.2 X
Track quality 100.0 %
Test CRC EFC38C57
Copy CRC EFC38C57
Track not present in AccurateRip database
Copy OK
Track 6
Filename D:\Musak 2\Bruce Eisenbeil\Bruce Eisenbeil`s Crosscurrent Trio - Mural (1999)\06. Chris V. Paradise.wav
Pre-gap length 0:00:02.57
Peak level 100.0 %
Extraction speed 2.0 X
Track quality 99.9 %
Test CRC 552842F5
Copy CRC 552842F5
Track not present in AccurateRip database
Copy OK
Track 7
Filename D:\Musak 2\Bruce Eisenbeil\Bruce Eisenbeil`s Crosscurrent Trio - Mural (1999)\07. In Memory Of A.D. (High Relief).wav
Pre-gap length 0:00:02.57
Peak level 100.0 %
Extraction speed 2.4 X
Track quality 100.0 %
Test CRC 1CF4380E
Copy CRC 1CF4380E
Track not present in AccurateRip database
Copy OK
Track 8
Filename D:\Musak 2\Bruce Eisenbeil\Bruce Eisenbeil`s Crosscurrent Trio - Mural (1999)\08. Crucifixion.wav
Pre-gap length 0:00:02.57
Peak level 95.1 %
Extraction speed 2.5 X
Track quality 100.0 %
Test CRC 88C32FE7
Copy CRC 88C32FE7
Track not present in AccurateRip database
Copy OK
Track 9
Filename D:\Musak 2\Bruce Eisenbeil\Bruce Eisenbeil`s Crosscurrent Trio - Mural (1999)\09. Blue Poles.wav
Pre-gap length 0:00:02.57
Peak level 99.2 %
Extraction speed 2.5 X
Track quality 99.9 %
Test CRC 619160C8
Copy CRC 619160C8
Track not present in AccurateRip database
Copy OK
None of the tracks are present in the AccurateRip database
No errors occurred
End of status report
==== Log checksum CE8E366A50B53B667ED723F3EA7953EC81E6CDDAAFB7F58261AEE6CD1FB3A146 ====
 
Содержание индексной карты (.CUE)
REM GENRE Avantgarde
REM DATE 1999
REM DISCID 7E107A09
REM COMMENT "ExactAudioCopy v1.0b3"
PERFORMER "Bruce Eisenbeil's Crosscurrent Trio"
TITLE "Mural"
FILE "01. Wildflowers.wav" WAVE
TRACK 01 AUDIO
TITLE "Wildflowers"
PERFORMER "Bruce Eisenbeil's Crosscurrent Trio"
INDEX 01 00:00:00
INDEX 02 01:37:63
INDEX 03 04:10:63
INDEX 04 04:31:62
INDEX 05 06:26:62
INDEX 06 07:02:62
TRACK 02 AUDIO
TITLE "Caesar"
PERFORMER "Bruce Eisenbeil's Crosscurrent Trio"
INDEX 00 07:21:55
FILE "02. Caesar.wav" WAVE
INDEX 01 00:00:00
INDEX 02 00:24:29
INDEX 03 02:04:70
INDEX 04 02:29:51
INDEX 05 03:37:60
INDEX 06 04:17:25
INDEX 07 06:34:60
INDEX 08 06:52:09
INDEX 09 10:10:35
INDEX 10 12:03:34
INDEX 11 14:26:50
TRACK 03 AUDIO
TITLE "Woman With A Handful Of Rain"
PERFORMER "Bruce Eisenbeil's Crosscurrent Trio"
INDEX 00 15:58:68
FILE "03. Woman With A Handful Of Rain.wav" WAVE
INDEX 01 00:00:00
TRACK 04 AUDIO
TITLE "Prelude"
PERFORMER "Bruce Eisenbeil's Crosscurrent Trio"
INDEX 00 12:54:02
FILE "04. Prelude.wav" WAVE
INDEX 01 00:00:00
FILE "05. Habeus Corpus.wav" WAVE
TRACK 05 AUDIO
TITLE "Habeus Corpus"
PERFORMER "Bruce Eisenbeil's Crosscurrent Trio"
INDEX 01 00:00:00
TRACK 06 AUDIO
TITLE "Chris V. Paradise"
PERFORMER "Bruce Eisenbeil's Crosscurrent Trio"
INDEX 00 07:39:57
FILE "06. Chris V. Paradise.wav" WAVE
INDEX 01 00:00:00
TRACK 07 AUDIO
TITLE "In Memory Of A.D. (High Relief)"
PERFORMER "Bruce Eisenbeil's Crosscurrent Trio"
INDEX 00 04:59:25
FILE "07. In Memory Of A.D. (High Relief).wav" WAVE
INDEX 01 00:00:00
TRACK 08 AUDIO
TITLE "Crucifixion"
PERFORMER "Bruce Eisenbeil's Crosscurrent Trio"
INDEX 00 05:39:44
FILE "08. Crucifixion.wav" WAVE
INDEX 01 00:00:00
INDEX 02 00:24:05
INDEX 03 00:59:16
INDEX 04 01:12:24
INDEX 05 02:15:01
TRACK 09 AUDIO
TITLE "Blue Poles"
PERFORMER "Bruce Eisenbeil's Crosscurrent Trio"
INDEX 00 06:51:26
FILE "09. Blue Poles.wav" WAVE
INDEX 01 00:00:00
INDEX 02 00:59:61
INDEX 03 01:42:11
INDEX 04 02:45:70
INDEX 05 03:44:55
INDEX 06 05:14:72
INDEX 07 06:15:08
 
Об альбоме (сборнике)
On Mural, Bruce Eisenbeil's Crosscurrent Trio -- Jason Brunka on bass and Ryan Sawyer on drums -- offers nine musical perspectives which, unlike Eisenbeil's trio on Nine Wings, is less polyrhythmic and tends to bring the music into a clear and exciting performance. Eisenbeil's guitar approach is based on modes rather than conventional changes, and his licks are fresh and distinctive. He achieves his goals on "Caesar," a 16-minute conceptual sculpture, because the blues-scale riff fragments he inserts offer a variety of musical textures, each with a different sonorous character. On the ballad "Woman With a Handful of Rain," his use of a long single note on his solo provides the listener with a variety of harmonic changes that capture the vivid imagery of raindrops falling and also infuses the work with the kind of vitality that helped establish the characteristics for which Eisenbeil has become known. Mural is a free wash of musical textures, a wholly improvised artistic vision delivered from an innovative and exploratory consciousness and should garner Eisenbeil additional involvement on the free and improvised music scenes.
***
Improvising guitarist Bruce Eisenbeil’s acute vision and authoritative control of his instrument is conveyed in gleaming fashion on this live Trio date titled, Mural. He’s been creating a buzz around the New York City area since emerging on the modern jazz scene a few years back as a complex musician who integrates buzz saw like single note runs, with sweeping chord progressions, smooth clear toned picking, delicate phrasing and more. Here, along with drummer Ryan Sawyer and bassist J. Brunka, Eisenbeil exhibits startling chops yet pursues cunning thematic development while reaping the benefits of a sturdy and altogether flexible rhythm section who share Eisenbeil’s penchant for rapid motion and highly literate improv. Pieces such as the 16-minute “Caesar” and “Woman With A Handful Of Rain” depict fierce conversational activity as Eisenbeil is ever the instigator while directing traffic and shifting the pulse on a moment’s notice as the rhythm section also illustrate their highly individualistic voices. Here and throughout, Eisenbeil is also a colorist and somewhat prone to execute heavy handed and incredibly quick strumming, as the illusion of two guitarists come to mind within several passages. Complimenting and rounding out a rather ubiquitous group sound, drummer Ryan Sawyer often works behind the pulse or on top of it, while J. Brunka is apt to toggle between arco-bass and fleet-fingered single note lines as the trio exhibit tireless energy often producing a hypnotic and somewhat circuitous flow. Occasionally, Eisenbeil cuts and slashes his guitar to shreds through a weaving and ephemeral approach, as everything seems comfortably in its place.
Without a doubt, Mural is an exciting and extremely captivating piece of work from the “Bruce Eisenbeil Crosscurrent Trio” as the guitarist and superb rhythm section provide the listener with sophisticated, clear-sighted improvisation which gains momentum upon repeated listens.
***
Kronosonic Interview | cadence interview (2003) | one final note interview | jazz weekly interview | allaboutjazz.com | all music guide | avant magazine interview | cadence (1997) | coast weekly article | downbeat | dusted magazine | jazziz | jazztimes | penguin guide | san francisco weekly concert preview
Jazziz Magazine, February 2000
Bruce Eisenbeil's Crosscurrent Trio: Mural (CIMP)
Anyone who heard Bruce Eisenbeil's Nine Wings, his debut from 1997, has been waiting impatiently for a sequel. Her is a guitarist who plays as intimately as Wes Montgomery, but who hears harmony s an open chromatic field. His busy chords flutter like starling's wings, gently occupying the harmonic spaces broken into by McCoy Tyner and John Coltrane in a more strenuous, heroic epoch. His originality is evidenced by the fact that he has transcended the distinction between a leading line and comping strum: He improvises the changes, turning harmonic speculation into the substance of the music. Instead of cacophony, what results is aerated and free. The Crosscurrent Trio is Jason Brunka on bass and Ryan Sawyer on drums. They're committed to Eisenbeil's concept, reveling in the exoticism of "Caesar," following his luxuriant speculations with gorgeous washes. Brunka bows resourcefully, and Sawyer is adept at the drum rolls and cymbal shimmers that make the drum set as much a textural scene-setter as a beat machine. On "Crucifixion," they make Eisenbeil's instant melody line hover in the air with hallucinogenic clarity.
The avant-garde doesn't often have time for sentiment, but the theme of "Woman With a Handful of Rain" is so melancholy it brings a lump to the throat. This trio is pursuing an agenda as old as Louis Armstrong: helping us feel again. Lovely.
Ben Watson
 
Состав
Bruce Eisenbeil - electric guitar
J. Brunka - bass
Ryan Sawyer - drums
Any questions -> support@pro-jazz.com. По всем вопросам пишите -> support@pro-jazz.com
22:18
185
Нет комментариев. Ваш будет первым!