Вы используете незарегистрированную версию компонента "Вкладки"!

Поиск

1991 Arthur Blythe - Hipmotism {ENJA 6088 2}

1991 Arthur Blythe - Hipmotism {ENJA 6088 2}
Издатель (лейбл):
Треклист:
Страна-производитель диска: Austria
Год издания диска: 1991
Издатель (лейбл): Enja
Номер по каталогу: ENJA 6088 2
Страна: US
Аудиокодек: FLAC (*.flac)
Тип рипа: tracks+.cue
Битрейт аудио: lossless
Продолжительность: 52:14
Источник (релизер): waffles.fm
Наличие сканов в содержимом раздачи: нет
Треклист:
1 Dear Dessa 3:11
2 Dance Benita Dance 5:42
3 Cousin Sidney 6:51
4 Shadows 5:48
5 Hipmotism 6:15
6 Miss Eugie 4:15
7 Matter Of Fact 8:22
8 Bush Baby 8:09
9 My Son Ra 3:18
 
Лог создания рипа
Нет
 
Содержание индексной карты (.CUE)
REM DISCID 7C0C3E09
REM COMMENT "ExactAudioCopy v0.95b2"
PERFORMER "Arthur Blythe"
TITLE "Hipmotism"
REM DISCNUMBER 1
REM TOTALDISCS 1
FILE "01 - Dear Dessa.flac" WAVE
  TRACK 01 AUDIO
    TITLE "Dear Dessa"
    PERFORMER "Arthur Blythe"
    PREGAP 00:00:33
    INDEX 01 00:00:00
FILE "02 - Dance Benita Dance.flac" WAVE
  TRACK 02 AUDIO
    TITLE "Dance Benita Dance"
    PERFORMER "Arthur Blythe"
    INDEX 01 00:00:00
FILE "03 - Cousin Sidney.flac" WAVE
  TRACK 03 AUDIO
    TITLE "Cousin Sidney"
    PERFORMER "Arthur Blythe"
    INDEX 01 00:00:00
FILE "04 - Shadows.flac" WAVE
  TRACK 04 AUDIO
    TITLE "Shadows"
    PERFORMER "Arthur Blythe"
    INDEX 01 00:00:00
FILE "05 - Hipmotism.flac" WAVE
  TRACK 05 AUDIO
    TITLE "Hipmotism"
    PERFORMER "Arthur Blythe"
    INDEX 01 00:00:00
FILE "06 - Miss Eugie.flac" WAVE
  TRACK 06 AUDIO
    TITLE "Miss Eugie"
    PERFORMER "Arthur Blythe"
    INDEX 01 00:00:00
FILE "07 - Matter Of Fact.flac" WAVE
  TRACK 07 AUDIO
    TITLE "Matter Of Fact"
    PERFORMER "Arthur Blythe"
    INDEX 01 00:00:00
FILE "08 - Bush Baby.flac" WAVE
  TRACK 08 AUDIO
    TITLE "Bush Baby"
    PERFORMER "Arthur Blythe"
    INDEX 01 00:00:00
FILE "09 - My Son Ra.flac" WAVE
  TRACK 09 AUDIO
    TITLE "My Son Ra"
    PERFORMER "Arthur Blythe"
    INDEX 01 00:00:00
 
Лог проверки качества
d:\>d:\aucdtect -d/-m0 d:\zzz\*.wav
auCDtect: CD records authenticity detector, version 0.8.2
Copyright (c) 2004 Oleg Berngardt. All rights reserved.
Copyright (c) 2004 Alexander Djourik. All rights reserved.
------------------------------------------------------------
Processing file: [01. Dear Dessa.wav]
------------------------------------------------------------
This track looks like CDDA with probability 100%
------------------------------------------------------------
Processing file: [02. Dance Benita Dance.wav]
------------------------------------------------------------
This track looks like CDDA with probability 100%
------------------------------------------------------------
Processing file: [03. Cousin Sidney.wav]
------------------------------------------------------------
This track looks like CDDA with probability 100%
------------------------------------------------------------
Processing file: [04. Shadows.wav]
------------------------------------------------------------
This track looks like CDDA with probability 100%
------------------------------------------------------------
Processing file: [05. Hipmotism.wav]
------------------------------------------------------------
This track looks like CDDA with probability 100%
------------------------------------------------------------
Processing file: [06. Miss Eugie.wav]
------------------------------------------------------------
This track looks like CDDA with probability 100%
------------------------------------------------------------
Processing file: [07. Matter Of Fact.wav]
------------------------------------------------------------
This track looks like CDDA with probability 100%
------------------------------------------------------------
Processing file: [08. Bush Baby.wav]
------------------------------------------------------------
This track looks like CDDA with probability 100%
------------------------------------------------------------
Processing file: [09. My Son Ra.wav]
------------------------------------------------------------
This track looks like CDDA with probability 100%
------------------------------------------------------------
Final Conclusion:
------------------------------------------------------------
These tracks looks like CDDA with probability 100%
Состав:
  • Alto Saxophone – Arthur Blythe
  • Baritone Saxophone – Hamiet Bluiett (tracks: 5, 7, 8)
  • Drums – Famoudou Don Moye (tracks: 2 to 5, 7, 8)
  • Guitar – Kelvin Bell (tracks: 2, 3, 5, 7, 8)
  • Percussion, Voice – Arto Tuncboyaci (tracks: 1, 2, 4 to 8)
  • Tuba – Bob Stewart (tracks: 2 to 8)
  • Vibraphone, Marimba – Gust William Tsilis (tracks: 1, 4, 5, 7, 8)

Recorded March 15-17, 1991, mixed April 10&11, 1991 at SYSTEM TWO Studios, Brooklyn, NY.
The music is dedicated to Arthur Blythe's mother (Miss Nancy).
Contains re-recorded versions of mostly previously released tracks.

Any questions -> support@pro-jazz.com. По всем вопросам пишите -> support@pro-jazz.com
22:17
352
Нет комментариев. Ваш будет первым!