Вы используете незарегистрированную версию компонента "Вкладки"!

Поиск

(Modern Creative / Between the Lines) James Emery / Joe Lovano / Judi Silvano / Drew Gress - Fourth World - 2001, FLAC (image+.cue), lossless

(Modern Creative / Between the Lines) James Emery / Joe Lovano / Judi Silvano / Drew Gress - Fourth World - 2001, FLAC (image+.cue), lossless
Треклист:
James Emery / Joe Lovano / Judi Silvano / Drew Gress - Fourth World
Жанр: Modern Creative / Between the Lines
Год выпуска диска: 2001
Производитель диска: Germany (Between the Lines BTL 020)
Аудио кодек: FLAC
Тип рипа: image+.cue
Битрейт аудио: lossless
Продолжительность: 1:06:47
James Emery acoustic guitar
Joe Lovano tenor, soprano, C melody, straight alto saxophones, alto clarinet, bells, shakers, gongs, log drums, drums
Judi Silvano flute & voice
Drew Gress acoustic bass
1. Bellflower
2. Golden Horn
3. Fourth World
4. Worship
5. Splendido
6. La Scala
7. The Next Level
8. In A Secret Place
9. Hannah's Song

 
AAJ Review
The title of this newly issued recording might ordinarily imply notions of poverty and human rights, but in the liners, guitarist James Emery iterates that the Fourth World “is the world, or dimension, of vibration.” We are presented with four world-class musicians pursuing good vibes on this astutely constructed 2002 release.
Joe Lovano performs on a variety of woodwind instruments here, yet on certain tracks he also mans the drum kit, also evidenced on his recent Flights Of Fancy outing. A minor beef is in order for the decision of not utilizing a seasoned drummer, as Lovano is prone to sound tentative amid choppy and uninteresting fills. However, his activities behind the kit do not detract from the recording when viewed upon as a whole, as the musicians surreptitiously translate polytonal pastiches of sound through often-compelling exchanges. On many of these works, the band is apt to break off into briefly actualized sub-groups. Alternatively, on pieces such as “Fourth World,” Judi Silvano renders whispery vocalise in unison with her associates’ complex themes. The quartet pronounces an airy backdrop via loosely formulated dialogue or when Lovano and acoustic guitarist James Emery partake in blistering cat-and-mouse like episodes.
Emery executes razor sharp single note lines and sweeping chord progressions during “La Scala,” while also counterbalancing Lovano with emphatically placed accents on their duet encounter titled “The Next Level.” Throughout this affair, bassist Drew Gress serves as the traffic director, while Ms. Silvano picks up the flute on the Caribbean tinged closer, “Hannah’s Song.” The musicians bring a mélange of experience to the table as they elicit notions of wide open terrain or expansive horizons, while touching upon the preternatural minutiae of the Fourth Dimension. Recommended. ~ Glenn Astarita, AAJ
 
EAC Report
Exact Audio Copy V0.99 prebeta 4 from 23. January 2008
EAC extraction logfile from 14. March 2009, 19:44
James Emery / Joe Lovano / Judi Silvano / Drew Gress / Fourth World
Used drive : TSSTcorpCD/DVDW SH-S182M Adapter: 2 ID: 0
Read mode : Secure
Utilize accurate stream : Yes
Defeat audio cache : Yes
Make use of C2 pointers : No
Read offset correction : 6
Overread into Lead-In and Lead-Out : No
Fill up missing offset samples with silence : Yes
Delete leading and trailing silent blocks : No
Null samples used in CRC calculations : Yes
Used interface : Installed external ASPI interface
Used output format : User Defined Encoder
Selected bitrate : 1024 kBit/s
Quality : High
Add ID3 tag : No
Command line compressor : C:\Program Files\Exact Audio Copy\FLAC\FLAC.EXE
Additional command line options : -8 -V -T "ARTIST=%a" -T "TITLE=%t" -T "ALBUM=%g" -T "DATE=%y" -T "TRACKNUMBER=%n" -T "GENRE=%m" -T "COMMENT=%e" %s -o %d
TOC of the extracted CD
Track | Start | Length | Start sector | End sector
---------------------------------------------------------
1 | 0:00.00 | 5:18.55 | 0 | 23904
2 | 5:18.55 | 8:59.27 | 23905 | 64356
3 | 14:18.07 | 11:52.43 | 64357 | 117799
4 | 26:10.50 | 8:57.37 | 117800 | 158111
5 | 35:08.12 | 8:07.35 | 158112 | 194671
6 | 43:15.47 | 5:31.74 | 194672 | 219570
7 | 48:47.46 | 8:46.68 | 219571 | 259088
8 | 57:34.39 | 5:12.15 | 259089 | 282503
9 | 62:46.54 | 4:00.11 | 282504 | 300514
Range status and errors
Selected range
Filename C:\Documents and Settings\Igor\My Documents\My Music\eac\Emery Lovano Silvano Gress - Fourth World.wav
Peak level 99.6 %
Range quality 100.0 %
Test CRC B44165B3
Copy CRC B44165B3
Copy OK
No errors occurred
AccurateRip summary
Track 1 not present in database
Track 2 not present in database
Track 3 not present in database
Track 4 not present in database
Track 5 not present in database
Track 6 not present in database
Track 7 not present in database
Track 8 not present in database
Track 9 not present in database
None of the tracks are present in the AccurateRip database
End of status report
Any questions -> support@pro-jazz.com. По всем вопросам пишите -> support@pro-jazz.com
11:25
162
Нет комментариев. Ваш будет первым!