Вы используете незарегистрированную версию компонента "Вкладки"!

Поиск

(Avant-Garde, Karaoke Vomit, Tzadik) Yamataka Eye & Dekoboko Hajime (John Zorn) - Nani Nani - 1995, FLAC (tracks+.cue), lossless

(Avant-Garde, Karaoke Vomit, Tzadik) Yamataka Eye & Dekoboko Hajime (John Zorn) - Nani Nani - 1995, FLAC (tracks+.cue), lossless
Треклист:
Yamataka Eye & Dekoboko Hajime (John Zorn) - Nani Nani
Жанр: Avant-Garde, Karaoke Vomit, Tzadik
Год выпуска диска: 1995
Производитель диска: US
Аудио кодек: FLAC
Тип рипа: tracks+.cue
Битрейт аудио: lossless
Продолжительность: 41:38
Трэклист:
1. Eep Man
2. Test Tube
3. Thank You For Not Thinking
4. Pulp Wars
5. Sticky Beethoven's Pipeline
6. Laughing Eskimo
7. Damascus
8. Yoga Dollar
9. Propolution
10. My Rainbow Life
11. Bad Hawkwind
12. We Live
Yamataka Eye: Vocal, Drums, Toys
Dekoboko Hajime (John Zorn): Sax, Harmonica, Guitar, Sitar, Sampler
Доп. информация:
 
X Lossless log
X Lossless Decoder version 20080926 (93.3)
XLD extraction logfile from 2009-02-13 22:56:19 -0500
John Zorn-Yamataka Eye / Nani Nani
Used drive : SONY DVD RW DW-Q28A (revision KAS7)
Use cdparanoia mode : YES (CDParanoia III 10.2 engine)
Disable audio cache : OK for the drive with cache less than 2750KB
Make use of C2 pointers : NO
Read offset correction : 12
Max retry count : 100
TOC of the extracted CD
Track | Start | Length | Start sector | End sector
---------------------------------------------------------
1 | 00:00:00 | 01:07:67 | 0 | 5091
2 | 01:07:67 | 03:11:28 | 5092 | 19444
3 | 04:19:20 | 02:36:37 | 19445 | 31181
4 | 06:55:57 | 02:57:05 | 31182 | 44461
5 | 09:52:62 | 01:15:30 | 44462 | 50116
6 | 11:08:17 | 01:28:60 | 50117 | 56776
7 | 12:37:02 | 01:11:65 | 56777 | 62166
8 | 13:48:67 | 05:17:23 | 62167 | 85964
9 | 19:06:15 | 01:36:62 | 85965 | 93226
10 | 20:43:02 | 01:44:58 | 93227 | 101084
11 | 22:27:60 | 18:13:35 | 101085 | 183094
12 | 40:41:20 | 00:57:17 | 183095 | 187386
List of alternate offset correction values
# | Absolute | Relative | Confidence
------------------------------------------
1 | -85 | -97 | 2
Track 01
Filename : /Users/Chris/Music/XLD Output/John Zorn-Yamataka Eye - Nani Nani [FLAC]/01 John Zorn-Yamataka Eye - Eepman.flac
CRC32 hash (test run) : 8862E8FF
CRC32 hash : 8862E8FF
CRC32 hash (skip zero) : BC5BA549
AccurateRip signature : ED468309
->Accurately ripped! (confidence 2)
(matched with the different offset correction value;
calculated using an additional offset of -97;
the signature after correction is: 48A3D394)
Statistics
Read error : 0
Skipped (treated as error) : 0
Edge jitter error (maybe fixed) : 0
Atom jitter error (maybe fixed) : 0
Drift error (maybe fixed) : 0
Dropped bytes error (maybe fixed) : 0
Duplicated bytes error (maybe fixed) : 0
Inconsistency in error sectors : 0
Track 02
Filename : /Users/Chris/Music/XLD Output/John Zorn-Yamataka Eye - Nani Nani [FLAC]/02 John Zorn-Yamataka Eye - Test Tube.flac
CRC32 hash (test run) : AE20693E
CRC32 hash : AE20693E
CRC32 hash (skip zero) : B5A561BD
AccurateRip signature : C736EC87
->Accurately ripped! (confidence 2)
(matched with the different offset correction value;
calculated using an additional offset of -97;
the signature after correction is: AB3FAEFF)
Statistics
Read error : 0
Skipped (treated as error) : 0
Edge jitter error (maybe fixed) : 0
Atom jitter error (maybe fixed) : 0
Drift error (maybe fixed) : 0
Dropped bytes error (maybe fixed) : 0
Duplicated bytes error (maybe fixed) : 0
Inconsistency in error sectors : 0
Track 03
Filename : /Users/Chris/Music/XLD Output/John Zorn-Yamataka Eye - Nani Nani [FLAC]/03 John Zorn-Yamataka Eye - Thank You For Not Thinking.flac
CRC32 hash (test run) : D84D124D
CRC32 hash : D84D124D
CRC32 hash (skip zero) : 6BF47740
AccurateRip signature : 2C09E49C
->Accurately ripped! (confidence 2)
(matched with the different offset correction value;
calculated using an additional offset of -97;
the signature after correction is: F9866CB1)
Statistics
Read error : 0
Skipped (treated as error) : 0
Edge jitter error (maybe fixed) : 0
Atom jitter error (maybe fixed) : 0
Drift error (maybe fixed) : 0
Dropped bytes error (maybe fixed) : 0
Duplicated bytes error (maybe fixed) : 0
Inconsistency in error sectors : 0
Track 04
Filename : /Users/Chris/Music/XLD Output/John Zorn-Yamataka Eye - Nani Nani [FLAC]/04 John Zorn-Yamataka Eye - Pulp Wars.flac
CRC32 hash (test run) : 1F7BA603
CRC32 hash : 1F7BA603
CRC32 hash (skip zero) : 5A3E3E61
AccurateRip signature : 46082F36
->Accurately ripped! (confidence 2)
(matched with the different offset correction value;
calculated using an additional offset of -97;
the signature after correction is: E2C1ED35)
Statistics
Read error : 0
Skipped (treated as error) : 0
Edge jitter error (maybe fixed) : 0
Atom jitter error (maybe fixed) : 0
Drift error (maybe fixed) : 0
Dropped bytes error (maybe fixed) : 0
Duplicated bytes error (maybe fixed) : 0
Inconsistency in error sectors : 0
Track 05
Filename : /Users/Chris/Music/XLD Output/John Zorn-Yamataka Eye - Nani Nani [FLAC]/05 John Zorn-Yamataka Eye - Sticky Beethoven's Pipeline.flac
CRC32 hash (test run) : 32376F1A
CRC32 hash : 32376F1A
CRC32 hash (skip zero) : C5F37482
AccurateRip signature : B2364D9C
->Accurately ripped! (confidence 2)
(matched with the different offset correction value;
calculated using an additional offset of -97;
the signature after correction is: F596C700)
Statistics
Read error : 0
Skipped (treated as error) : 0
Edge jitter error (maybe fixed) : 0
Atom jitter error (maybe fixed) : 0
Drift error (maybe fixed) : 0
Dropped bytes error (maybe fixed) : 0
Duplicated bytes error (maybe fixed) : 0
Inconsistency in error sectors : 0
Track 06
Filename : /Users/Chris/Music/XLD Output/John Zorn-Yamataka Eye - Nani Nani [FLAC]/06 John Zorn-Yamataka Eye - Lauging Eskimo.flac
CRC32 hash (test run) : 858A647E
CRC32 hash : 858A647E
CRC32 hash (skip zero) : 18FE3B50
AccurateRip signature : 3C282BFA
->Accurately ripped! (confidence 2)
(matched with the different offset correction value;
calculated using an additional offset of -97;
the signature after correction is: 5262F556)
Statistics
Read error : 0
Skipped (treated as error) : 0
Edge jitter error (maybe fixed) : 0
Atom jitter error (maybe fixed) : 0
Drift error (maybe fixed) : 0
Dropped bytes error (maybe fixed) : 0
Duplicated bytes error (maybe fixed) : 0
Inconsistency in error sectors : 0
Track 07
Filename : /Users/Chris/Music/XLD Output/John Zorn-Yamataka Eye - Nani Nani [FLAC]/07 John Zorn-Yamataka Eye - Damascus.flac
CRC32 hash (test run) : 4E787707
CRC32 hash : 4E787707
CRC32 hash (skip zero) : 7C04B06F
AccurateRip signature : 0F0C1FA9
->Accurately ripped! (confidence 2)
(matched with the different offset correction value;
calculated using an additional offset of -97;
the signature after correction is: FDF39F42)
Statistics
Read error : 0
Skipped (treated as error) : 0
Edge jitter error (maybe fixed) : 0
Atom jitter error (maybe fixed) : 0
Drift error (maybe fixed) : 0
Dropped bytes error (maybe fixed) : 0
Duplicated bytes error (maybe fixed) : 0
Inconsistency in error sectors : 0
Track 08
Filename : /Users/Chris/Music/XLD Output/John Zorn-Yamataka Eye - Nani Nani [FLAC]/08 John Zorn-Yamataka Eye - Yoga Dollar.flac
CRC32 hash (test run) : E674D0D3
CRC32 hash : E674D0D3
CRC32 hash (skip zero) : 71E237C4
AccurateRip signature : 26E4F3C0
->Accurately ripped! (confidence 2)
(matched with the different offset correction value;
calculated using an additional offset of -97;
the signature after correction is: 62B6429D)
Statistics
Read error : 0
Skipped (treated as error) : 0
Edge jitter error (maybe fixed) : 0
Atom jitter error (maybe fixed) : 0
Drift error (maybe fixed) : 0
Dropped bytes error (maybe fixed) : 0
Duplicated bytes error (maybe fixed) : 0
Inconsistency in error sectors : 0
Track 09
Filename : /Users/Chris/Music/XLD Output/John Zorn-Yamataka Eye - Nani Nani [FLAC]/09 John Zorn-Yamataka Eye - Propolution.flac
CRC32 hash (test run) : 9830A605
CRC32 hash : 9830A605
CRC32 hash (skip zero) : 5EA07008
AccurateRip signature : 7E1647E8
->Accurately ripped! (confidence 2)
(matched with the different offset correction value;
calculated using an additional offset of -97;
the signature after correction is: 5607E87D)
Statistics
Read error : 0
Skipped (treated as error) : 0
Edge jitter error (maybe fixed) : 0
Atom jitter error (maybe fixed) : 0
Drift error (maybe fixed) : 0
Dropped bytes error (maybe fixed) : 0
Duplicated bytes error (maybe fixed) : 0
Inconsistency in error sectors : 0
Track 10
Filename : /Users/Chris/Music/XLD Output/John Zorn-Yamataka Eye - Nani Nani [FLAC]/10 John Zorn-Yamataka Eye - My Rainbow Life.flac
CRC32 hash (test run) : AB9FDEB8
CRC32 hash : AB9FDEB8
CRC32 hash (skip zero) : 8F19B945
AccurateRip signature : 156875A5
->Track not present in AccurateRip database.
Statistics
Read error : 0
Skipped (treated as error) : 0
Edge jitter error (maybe fixed) : 0
Atom jitter error (maybe fixed) : 0
Drift error (maybe fixed) : 0
Dropped bytes error (maybe fixed) : 0
Duplicated bytes error (maybe fixed) : 0
Inconsistency in error sectors : 0
Track 11
Filename : /Users/Chris/Music/XLD Output/John Zorn-Yamataka Eye - Nani Nani [FLAC]/11 John Zorn-Yamataka Eye - Bad Hawkwind.flac
CRC32 hash (test run) : FBB6FDCA
CRC32 hash : FBB6FDCA
CRC32 hash (skip zero) : 0DDDEFF3
AccurateRip signature : C7C2F1CB
->Accurately ripped! (confidence 2)
(matched with the different offset correction value;
calculated using an additional offset of -97;
the signature after correction is: 614C1225)
Statistics
Read error : 0
Skipped (treated as error) : 0
Edge jitter error (maybe fixed) : 0
Atom jitter error (maybe fixed) : 0
Drift error (maybe fixed) : 0
Dropped bytes error (maybe fixed) : 0
Duplicated bytes error (maybe fixed) : 0
Inconsistency in error sectors : 0
Track 12
Filename : /Users/Chris/Music/XLD Output/John Zorn-Yamataka Eye - Nani Nani [FLAC]/12 John Zorn-Yamataka Eye - We Live.flac
CRC32 hash (test run) : 150D8976
CRC32 hash : 150D8976
CRC32 hash (skip zero) : F6568488
AccurateRip signature : 23F02FCC
->Accurately ripped! (confidence 2)
(matched with the different offset correction value;
calculated using an additional offset of -97;
the signature after correction is: 072E1972)
Statistics
Read error : 0
Skipped (treated as error) : 0
Edge jitter error (maybe fixed) : 0
Atom jitter error (maybe fixed) : 0
Drift error (maybe fixed) : 0
Dropped bytes error (maybe fixed) : 0
Duplicated bytes error (maybe fixed) : 0
Inconsistency in error sectors : 0
No errors occurred
End of status report
 
Tzadik
John Zorn and Yamataka Eye's (Boredoms) long-awaited duo project. A culmination of eight years of empathy and friendship, this collaborative studio recording is yet another unusual direction in music from these two masters of the unexpected. The finest in ambient screams, hardcore surf, erotic Indian psychedelic, moronic samples, industrial monster movies and karaoke vomit.
Any questions -> support@pro-jazz.com. По всем вопросам пишите -> support@pro-jazz.com
11:24
171
Нет комментариев. Ваш будет первым!