Вы используете незарегистрированную версию компонента "Вкладки"!

Поиск

(Modern Creative) Ben Allison - Medicine Wheel - 1998, FLAC (tracks+.cue), lossless

Треклист:
Ben Allison - Medicine Wheel
Жанр: Modern Creative
Год выпуска диска: 1998
Производитель диска: Palmetto (2038)
Аудио кодек: FLAC
Тип рипа: tracks+.cue
Битрейт аудио: lossless
Продолжительность: 0:48:37
Треклист:
01. Spy (7:44)
02. Mousetrap (6:43)
03. Buzz (6:47)
04. Apostles of the Ugly (5:19)
05. Blabbermouth (8:38)
06. Spy (Detail) (1:38)
07. Quirky Dungeon (4:50)
08. Tiny C (6:57)
Ben Allison - bass
Ted Nash - saxophone, flute
Michael Blake - saxophone
Ron Horton - trumpet, flugelhorn
Tomas Ulrich - cello
Frank Kimbrough - piano, prepared piano
Jeff Ballard - drums
Recorded at Sorcerer Sound, New York, New York, on June 4, 5 & 18, 1997
За релиз спасибо gerasim427724
 
EAC Log
Exact Audio Copy V0.99 prebeta 5 from 4. May 2009
EAC extraction logfile from 17. July 2010, 22:19
Ben Allison / Medicine Wheel
Used drive : Optiarc DVD RW AD-7200A Adapter: 0 ID: 0
Read mode : Secure
Utilize accurate stream : Yes
Defeat audio cache : Yes
Make use of C2 pointers : No
Read offset correction : 48
Overread into Lead-In and Lead-Out : No
Fill up missing offset samples with silence : Yes
Delete leading and trailing silent blocks : No
Null samples used in CRC calculations : Yes
Used interface : Installed external ASPI interface
Gap handling : Appended to previous track
Used output format : User Defined Encoder
Selected bitrate : 128 kBit/s
Quality : High
Add ID3 tag : No
Command line compressor : C:\Program Files\Exact Audio Copy\Flac\flac.exe
Additional command line options : -8 -V -T "ARTIST=%a" -T "TITLE=%t" -T "ALBUM=%g" -T "DATE=%y" -T "TRACKNUMBER=%n" -T "GENRE=%m" -T "COMMENT=EAC FLAC -8" %s
TOC of the extracted CD
Track | Start | Length | Start sector | End sector
---------------------------------------------------------
1 | 0:00.00 | 7:44.34 | 0 | 34833
2 | 7:44.34 | 6:43.30 | 34834 | 65088
3 | 14:27.64 | 6:47.13 | 65089 | 95626
4 | 21:15.02 | 5:19.13 | 95627 | 119564
5 | 26:34.15 | 8:37.59 | 119565 | 158398
6 | 35:11.74 | 1:38.08 | 158399 | 165756
7 | 36:50.07 | 4:50.34 | 165757 | 187540
8 | 41:40.41 | 6:56.48 | 187541 | 218788
Track 1
Filename F:\Work\Medicine Wheel\01. Ben Allison – Spy.wav
Pre-gap length 0:00:02.00
Peak level 96.8 %
Track quality 100.0 %
Test CRC C0D47F6E
Copy CRC C0D47F6E
Track not present in AccurateRip database
Copy OK
Track 2
Filename F:\Work\Medicine Wheel\02. Ben Allison – Mousetrap.wav
Peak level 77.6 %
Track quality 100.0 %
Test CRC CE242923
Copy CRC CE242923
Track not present in AccurateRip database
Copy OK
Track 3
Filename F:\Work\Medicine Wheel\03. Ben Allison – Buzz.wav
Peak level 90.7 %
Track quality 100.0 %
Test CRC 38EA4DED
Copy CRC 38EA4DED
Track not present in AccurateRip database
Copy OK
Track 4
Filename F:\Work\Medicine Wheel\04. Ben Allison – Apostles of the Ugly.wav
Peak level 87.7 %
Track quality 100.0 %
Test CRC E1A6F10D
Copy CRC E1A6F10D
Track not present in AccurateRip database
Copy OK
Track 5
Filename F:\Work\Medicine Wheel\05. Ben Allison – Blabbermouth.wav
Peak level 95.9 %
Track quality 100.0 %
Test CRC A4826D45
Copy CRC A4826D45
Track not present in AccurateRip database
Copy OK
Track 6
Filename F:\Work\Medicine Wheel\06. Ben Allison – Spy (Detail).wav
Peak level 33.4 %
Track quality 100.0 %
Test CRC 1824F429
Copy CRC 1824F429
Track not present in AccurateRip database
Copy OK
Track 7
Filename F:\Work\Medicine Wheel\07. Ben Allison – Quirky Dungeon.wav
Peak level 97.3 %
Track quality 100.0 %
Test CRC 4DFFB643
Copy CRC 4DFFB643
Track not present in AccurateRip database
Copy OK
Track 8
Filename F:\Work\Medicine Wheel\08. Ben Allison – Tiny C.wav
Peak level 98.8 %
Track quality 100.0 %
Test CRC 0D19632E
Copy CRC 0D19632E
Track not present in AccurateRip database
Copy OK
None of the tracks are present in the AccurateRip database
No errors occurred
End of status report
 
Cue
REM GENRE Jazz
REM DATE 1998
REM DISCID 660B6508
REM COMMENT "ExactAudioCopy v0.99pb5"
PERFORMER "Ben Allison"
TITLE "Medicine Wheel"
FILE "01. Ben Allison – Spy.wav" WAVE
TRACK 01 AUDIO
TITLE "Spy"
PERFORMER "Ben Allison"
INDEX 01 00:00:00
FILE "02. Ben Allison – Mousetrap.wav" WAVE
TRACK 02 AUDIO
TITLE "Mousetrap"
PERFORMER "Ben Allison"
INDEX 01 00:00:00
FILE "03. Ben Allison – Buzz.wav" WAVE
TRACK 03 AUDIO
TITLE "Buzz"
PERFORMER "Ben Allison"
INDEX 01 00:00:00
FILE "04. Ben Allison – Apostles of the Ugly.wav" WAVE
TRACK 04 AUDIO
TITLE "Apostles of the Ugly"
PERFORMER "Ben Allison"
INDEX 01 00:00:00
FILE "05. Ben Allison – Blabbermouth.wav" WAVE
TRACK 05 AUDIO
TITLE "Blabbermouth"
PERFORMER "Ben Allison"
INDEX 01 00:00:00
FILE "06. Ben Allison – Spy (Detail).wav" WAVE
TRACK 06 AUDIO
TITLE "Spy (Detail)"
PERFORMER "Ben Allison"
INDEX 01 00:00:00
FILE "07. Ben Allison – Quirky Dungeon.wav" WAVE
TRACK 07 AUDIO
TITLE "Quirky Dungeon"
PERFORMER "Ben Allison"
INDEX 01 00:00:00
FILE "08. Ben Allison – Tiny C.wav" WAVE
TRACK 08 AUDIO
TITLE "Tiny C"
PERFORMER "Ben Allison"
INDEX 01 00:00:00
Any questions -> support@pro-jazz.com. По всем вопросам пишите -> support@pro-jazz.com
01:39
125
Нет комментариев. Ваш будет первым!