Вы используете незарегистрированную версию компонента "Вкладки"!

Поиск

(Modern Creative) Ben Allison & Medicine Wheel - Buzz - 2004, FLAC (tracks+.cue), lossless

Треклист:
Ben Allison & Medicine Wheel - Buzz
Жанр: Modern Creative
Год выпуска диска: 2004
Производитель диска: Palmetto (2101)
Аудио кодек: FLAC
Тип рипа: tracks+.cue
Битрейт аудио: lossless
Продолжительность: 0:44:36
Треклист:
01. Respiration (6:10)
02. Buzz (7:58)
03. Green Al (6:15)
04. Mauritania (7:02)
05. Erato (4:43)
06. R&B Fantasy (7:18)
07. Across The Universe (5:11)
Ben Allison - Bass
Michael Blake - Saxophones
Ted Nash - Saxophone, Flute
Clark Gayton - Trombone
Frank Kimbrough - Piano, Wurlitzer
Mike Sarin - Drums
Recorded at the Maggie's Farm, PA, 19 and 20 November, 2003
За релиз спасибо drugrug
 
XLD Log
X Lossless Decoder version 20090910 (109.7)
XLD extraction logfile from 2009-09-13 12:58:33 -0400
Ben Allison / Buzz
Used drive : HL-DT-ST DVDRW GS21N (revision SA15)
Use cdparanoia mode : YES (CDParanoia III 10.2 engine)
Disable audio cache : OK for the drive with cache less than 2750KB
Make use of C2 pointers : NO
Read offset correction : 667
Max retry count : 100
TOC of the extracted CD
Track | Start | Length | Start sector | End sector
---------------------------------------------------------
1 | 00:00:00 | 06:10:15 | 0 | 27764
2 | 06:10:15 | 07:58:00 | 27765 | 63614
3 | 14:08:15 | 06:14:57 | 63615 | 91721
4 | 20:22:72 | 07:01:38 | 91722 | 123334
5 | 27:24:35 | 04:42:42 | 123335 | 144526
6 | 32:07:02 | 07:18:15 | 144527 | 177391
7 | 39:25:17 | 05:10:70 | 177392 | 200711
All Tracks
Album gain : -5.82 dB
Peak : 1.000000
Track 01
Filename : /Users/davidnkarp/Desktop/what.cd/music/Ben Allison & Medicine Wheel - Buzz [2004]/01 - Respiration.flac
/Users/davidnkarp/Desktop/what.cd/music/Ben Allison & Medicine Wheel - Buzz [2004]/01 - Respiration.mp3
Track gain : -5.77 dB
Peak : 0.974182
CRC32 hash (test run) : 561041B6
CRC32 hash : 561041B6
CRC32 hash (skip zero) : ED32D3AC
AccurateRip signature : D7CC2D12
->Accurately ripped! (confidence 2)
Statistics
Read error : 0
Skipped (treated as error) : 0
Edge jitter error (maybe fixed) : 0
Atom jitter error (maybe fixed) : 0
Drift error (maybe fixed) : 0
Dropped bytes error (maybe fixed) : 0
Duplicated bytes error (maybe fixed) : 0
Inconsistency in error sectors : 0
Track 02
Filename : /Users/davidnkarp/Desktop/what.cd/music/Ben Allison & Medicine Wheel - Buzz [2004]/02 - Buzz.flac
/Users/davidnkarp/Desktop/what.cd/music/Ben Allison & Medicine Wheel - Buzz [2004]/02 - Buzz.mp3
Track gain : -6.52 dB
Peak : 1.000000
CRC32 hash (test run) : 9BBD1A41
CRC32 hash : 9BBD1A41
CRC32 hash (skip zero) : 61D33438
AccurateRip signature : AB6A4028
->Accurately ripped! (confidence 2)
Statistics
Read error : 0
Skipped (treated as error) : 0
Edge jitter error (maybe fixed) : 0
Atom jitter error (maybe fixed) : 0
Drift error (maybe fixed) : 0
Dropped bytes error (maybe fixed) : 0
Duplicated bytes error (maybe fixed) : 0
Inconsistency in error sectors : 0
Track 03
Filename : /Users/davidnkarp/Desktop/what.cd/music/Ben Allison & Medicine Wheel - Buzz [2004]/03 - Green Al.flac
/Users/davidnkarp/Desktop/what.cd/music/Ben Allison & Medicine Wheel - Buzz [2004]/03 - Green Al.mp3
Track gain : -3.18 dB
Peak : 0.997742
CRC32 hash (test run) : 15251802
CRC32 hash : 15251802
CRC32 hash (skip zero) : DC362F6B
AccurateRip signature : 201190D8
->Accurately ripped! (confidence 2)
Statistics
Read error : 0
Skipped (treated as error) : 0
Edge jitter error (maybe fixed) : 0
Atom jitter error (maybe fixed) : 0
Drift error (maybe fixed) : 0
Dropped bytes error (maybe fixed) : 0
Duplicated bytes error (maybe fixed) : 0
Inconsistency in error sectors : 0
Track 04
Filename : /Users/davidnkarp/Desktop/what.cd/music/Ben Allison & Medicine Wheel - Buzz [2004]/04 - Mauritania.flac
/Users/davidnkarp/Desktop/what.cd/music/Ben Allison & Medicine Wheel - Buzz [2004]/04 - Mauritania.mp3
Track gain : -6.01 dB
Peak : 0.968933
CRC32 hash (test run) : 1477C2F3
CRC32 hash : 1477C2F3
CRC32 hash (skip zero) : E855B18C
AccurateRip signature : 87BCA487
->Accurately ripped! (confidence 2)
Statistics
Read error : 0
Skipped (treated as error) : 0
Edge jitter error (maybe fixed) : 0
Atom jitter error (maybe fixed) : 0
Drift error (maybe fixed) : 0
Dropped bytes error (maybe fixed) : 0
Duplicated bytes error (maybe fixed) : 0
Inconsistency in error sectors : 0
Track 05
Filename : /Users/davidnkarp/Desktop/what.cd/music/Ben Allison & Medicine Wheel - Buzz [2004]/05 - Erato.flac
/Users/davidnkarp/Desktop/what.cd/music/Ben Allison & Medicine Wheel - Buzz [2004]/05 - Erato.mp3
Track gain : -6.17 dB
Peak : 0.960724
CRC32 hash (test run) : CEC4FCAC
CRC32 hash : CEC4FCAC
CRC32 hash (skip zero) : 5438D2AB
AccurateRip signature : 521F84DD
->Accurately ripped! (confidence 2)
Statistics
Read error : 0
Skipped (treated as error) : 0
Edge jitter error (maybe fixed) : 0
Atom jitter error (maybe fixed) : 0
Drift error (maybe fixed) : 0
Dropped bytes error (maybe fixed) : 0
Duplicated bytes error (maybe fixed) : 0
Inconsistency in error sectors : 0
Track 06
Filename : /Users/davidnkarp/Desktop/what.cd/music/Ben Allison & Medicine Wheel - Buzz [2004]/06 - R&B Fantasy.flac
/Users/davidnkarp/Desktop/what.cd/music/Ben Allison & Medicine Wheel - Buzz [2004]/06 - R&B Fantasy.mp3
Track gain : -6.04 dB
Peak : 0.970184
CRC32 hash (test run) : E6F1B0C5
CRC32 hash : E6F1B0C5
CRC32 hash (skip zero) : 1A1BA504
AccurateRip signature : B080C13C
->Accurately ripped! (confidence 2)
Statistics
Read error : 0
Skipped (treated as error) : 0
Edge jitter error (maybe fixed) : 0
Atom jitter error (maybe fixed) : 0
Drift error (maybe fixed) : 0
Dropped bytes error (maybe fixed) : 0
Duplicated bytes error (maybe fixed) : 0
Inconsistency in error sectors : 0
Track 07
Filename : /Users/davidnkarp/Desktop/what.cd/music/Ben Allison & Medicine Wheel - Buzz [2004]/07 - Across The Universe.flac
/Users/davidnkarp/Desktop/what.cd/music/Ben Allison & Medicine Wheel - Buzz [2004]/07 - Across The Universe.mp3
Track gain : -3.45 dB
Peak : 0.947784
CRC32 hash (test run) : 208860B8
CRC32 hash : 208860B8
CRC32 hash (skip zero) : B18718ED
AccurateRip signature : DF815E2E
->Accurately ripped! (confidence 2)
Statistics
Read error : 0
Skipped (treated as error) : 0
Edge jitter error (maybe fixed) : 0
Atom jitter error (maybe fixed) : 0
Drift error (maybe fixed) : 0
Dropped bytes error (maybe fixed) : 0
Duplicated bytes error (maybe fixed) : 0
Inconsistency in error sectors : 0
No errors occurred
End of status report
 
Cue
TITLE "Buzz"
PERFORMER "Ben Allison"
REM GENRE "Jazz"
REM DATE 2004
FILE "01 - Respiration.wav" WAVE
TRACK 01 AUDIO
TITLE "Respiration"
INDEX 01 00:00:00
TRACK 02 AUDIO
TITLE "Buzz"
INDEX 00 06:06:20
FILE "02 - Buzz.wav" WAVE
INDEX 01 00:00:00
TRACK 03 AUDIO
TITLE "Green Al"
INDEX 00 07:54:05
FILE "03 - Green Al.wav" WAVE
INDEX 01 00:00:00
TRACK 04 AUDIO
TITLE "Mauritania"
INDEX 00 06:09:55
FILE "04 - Mauritania.wav" WAVE
INDEX 01 00:00:00
TRACK 05 AUDIO
TITLE "Erato"
INDEX 00 06:57:40
FILE "05 - Erato.wav" WAVE
INDEX 01 00:00:00
TRACK 06 AUDIO
TITLE "R&B Fantasy"
INDEX 00 04:38:30
FILE "06 - R&B Fantasy.wav" WAVE
INDEX 01 00:00:00
TRACK 07 AUDIO
TITLE "Across The Universe"
INDEX 00 07:15:45
FILE "07 - Across The Universe.wav" WAVE
INDEX 01 00:00:00
Any questions -> support@pro-jazz.com. По всем вопросам пишите -> support@pro-jazz.com
01:40
125
Нет комментариев. Ваш будет первым!