Поиск

(Modern Creative) Ben Allison & Medicine Wheel - Riding the Nuclear Tiger - 2001, FLAC (image+.cue), lossless

(Modern Creative) Ben Allison & Medicine Wheel - Riding the Nuclear Tiger - 2001, FLAC (image+.cue), lossless
Треклист:
Ben Allison & Medicine Wheel - Riding the Nuclear Tiger
Жанр: Modern Creative
Год выпуска диска: 2001
Производитель диска: Palmetto (PM2067)
Аудио кодек: FLAC
Тип рипа: image+.cue
Битрейт аудио: lossless
Продолжительность: 0:49:26
Трэклист:
01. Riding the Nuclear Tiger (5:22)
02. Jazz Scene Voyer (6:56)
03. Love Chant Remix (7:30)
04. Swiss Cheese D (5:00)
05. Weazy (4:15)
06. Charlie Brown's Psychedelic Christmas (6:18)
07. Harlem River Line (7:12)
08. Mysterious Visitor (2:08)
09. Tectonics (4:47)
Ben Allison - bass
Michael Blake - tenor & soprano saxophones
Ted Nash - temor, alto & soprano saxophones, bass clarinet
Ron Horton - trumooet & flugelhorn
Frank Kimbrough - piano, prepared piano
Tomas Ulrich - cello
Jeff Ballard - drums
За рип спасибо kruno
 
EAC Log
Exact Audio Copy V0.99 prebeta 4 from 23. January 2008
EAC extraction logfile from 19. January 2010, 18:11
Ben Allison & Medicine Wheel / Riding the Nuclear Tiger
Used drive : Optiarc DVD RW AD-7170S Adapter: 3 ID: 0
Read mode : Secure
Utilize accurate stream : Yes
Defeat audio cache : Yes
Make use of C2 pointers : No
Read offset correction : 48
Overread into Lead-In and Lead-Out : No
Fill up missing offset samples with silence : Yes
Delete leading and trailing silent blocks : No
Null samples used in CRC calculations : Yes
Used interface : Installed external ASPI interface
Used output format : User Defined Encoder
Selected bitrate : 768 kBit/s
Quality : High
Add ID3 tag : No
Command line compressor : D:\Program Files\FLAC\flac.exe
Additional command line options : -8 -V -T "album=%g" -T "date=%y" -T "genre=%m" -- %s
TOC of the extracted CD
Track | Start | Length | Start sector | End sector
---------------------------------------------------------
1 | 0:00.00 | 5:22.02 | 0 | 24151
2 | 5:22.02 | 6:56.00 | 24152 | 55351
3 | 12:18.02 | 7:29.45 | 55352 | 89071
4 | 19:47.47 | 4:59.45 | 89072 | 111541
5 | 24:47.17 | 4:15.25 | 111542 | 130691
6 | 29:02.42 | 6:18.05 | 130692 | 159046
7 | 35:20.47 | 7:11.40 | 159047 | 191411
8 | 42:32.12 | 2:07.55 | 191412 | 200991
9 | 44:39.67 | 4:46.40 | 200992 | 222481
Range status and errors
Selected range
Filename D:\work\eac\Ben Allison & Medicine Wheel - Riding the Nuclear Tiger.wav
Peak level 99.7 %
Range quality 99.9 %
Test CRC 4572A886
Copy CRC 4572A886
Copy OK
No errors occurred
AccurateRip summary
Track 1 cannot be verified as accurate (confidence 2) [9E24966F], AccurateRip returned [32715863]
Track 2 cannot be verified as accurate (confidence 2) [20064C81], AccurateRip returned [254817E9]
Track 3 cannot be verified as accurate (confidence 2) [25237FE7], AccurateRip returned [C3A52F6F]
Track 4 cannot be verified as accurate (confidence 2) [5395E0E2], AccurateRip returned [1BE75CC9]
Track 5 cannot be verified as accurate (confidence 2) [F80CE5AD], AccurateRip returned [8BB2623E]
Track 6 cannot be verified as accurate (confidence 2) [98CB91E6], AccurateRip returned [11CAC3AA]
Track 7 cannot be verified as accurate (confidence 2) [13E193C5], AccurateRip returned [0EA190A5]
Track 8 cannot be verified as accurate (confidence 2) [30C74448], AccurateRip returned [16653B2E]
Track 9 cannot be verified as accurate (confidence 2) [D033BE04], AccurateRip returned [197189BA]
No tracks could be verified as accurate
You may have a different pressing from the one(s) in the database
End of status report
По всем вопросам пишите личное сообщение пользователю M0p94ok.
19:55
129
Нет комментариев. Ваш будет первым!