Вы используете незарегистрированную версию компонента "Вкладки"!

Поиск

(Free Jazz, Free Improvisation) Cecil Taylor Unit - Akisakila - Cecil Taylor Unit In Japan Vol. 1 & 2 - 1992 (1973), FLAC (tracks+.cue), lossless

Треклист:
Cecil Taylor Unit - Akisakila
Cecil Taylor Unit In Japan Vol. 1 & 2
Жанр: Free Jazz, Free Improvisation
Год выпуска диска: 1992 (1973)
Производитель диска: Konnex Records (KCD 5039/5040)
Источник: вот.сиди (Nesta)
Аудио кодек: FLAC
Тип рипа: tracks+.cue
Битрейт аудио: lossless
Продолжительность: 1:52:52
Трэклист:
1.1 Bulu Akisakila Kutala (part 1) 1:01:06
2.1 Bulu Akisakila Kutala (part 2) 20:38
Cecil Taylor piano
Jimmy Lyons alto saxophone
Andrew Cyrille drums
Recorded May 22, 1973 at Koseinenkin Dai-Hall, Tokyo.
2.2 Lono: Choral Of Voice 7:19
2.3 Lono: Lono 9:23
2.4 Lono: Asapk In Ame, 1st Layer Part Of Indent 7:07
2.5 Lono: Indent: 1/2 Of First Layer, 2nd 1/2 Of 1st Layer 7:15
Cecil Taylor piano solo
Recorded May 29, 1973 at Lino Hall, Tokyo.Пианист должен играть громко, быстро и долго. Звукозаписывающая индустрия оказалась не готова, при разработке стандарта компакт-дисков никто не подумал о Тэйлоре. Его 80-минутную импровизацию не удалось поместить на компакт-диск, она затихает в конце первого диска и продолжается на втором. Остаток второго диска - коротенькие пиески для фортепиано соло, которые также представлены на диске Cecil Taylor - Solo.
 
Отчёт EAC
 
I
EAC extraction logfile from 20. April 2008, 18:00 for CD
Cecil Taylor Unit / Akisakila
Used drive : IDE-DVD DVDRW8651 Adapter: 2 ID: 0
Read mode : Secure with NO C2, accurate stream, NO disable cache
Read offset correction : 618
Overread into Lead-In and Lead-Out : No
Used output format : C:\Program Files\FLAC\flac.exe (User Defined Encoder)
192 kBit/s
Additional command line options : -V -8 -T "artist=%a" -T "title=%t" -T "album=%g" -T "date=%y" -T "tracknumber=%n" -T "genre=%m" %s
Other options :
Fill up missing offset samples with silence : Yes
Delete leading and trailing silent blocks : No
Native Win32 interface for Win NT & 2000
Track 1
Filename C:\New Folder\01 - Bulu Akisakila Kutala (Vol 1).wav
Pre-gap length 0:00:02.00
Peak level 97.7 %
Track quality 100.0 %
Test CRC C12C14CD
Copy CRC C12C14CD
Copy OK
No errors occured
End of status report
 
II
EAC extraction logfile from 26. April 2008, 15:28 for CD
Cecil Taylor / Akisakila (Vol.20
Used drive : IDE-DVD DVDRW8651 Adapter: 2 ID: 0
Read mode : Secure with NO C2, accurate stream, NO disable cache
Read offset correction : 618
Overread into Lead-In and Lead-Out : No
Used output format : C:\Program Files\FLAC\flac.exe (User Defined Encoder)
192 kBit/s
Additional command line options : -V -8 -T "artist=%a" -T "title=%t" -T "album=%g" -T "date=%y" -T "tracknumber=%n" -T "genre=%m" %s
Other options :
Fill up missing offset samples with silence : Yes
Delete leading and trailing silent blocks : No
Native Win32 interface for Win NT & 2000
Track 1
Filename C:\New Folder\01 - Bulu Akisakila Kutala, Pt 2.wav
Pre-gap length 0:00:02.00
Peak level 97.7 %
Track quality 99.9 %
Test CRC 1665AB6E
Copy CRC 1665AB6E
Copy OK
Track 2
Filename C:\New Folder\02 - Lono, 1 Choral of Voice.wav
Pre-gap length 0:00:05.00
Peak level 97.7 %
Track quality 99.9 %
Test CRC EB51F8F8
Copy CRC EB51F8F8
Copy OK
Track 3
Filename C:\New Folder\03 - Lono, 2 Lono.wav
Pre-gap length 0:00:04.00
Peak level 87.3 %
Track quality 100.0 %
Test CRC 87E6859E
Copy CRC 87E6859E
Copy OK
Track 4
Filename C:\New Folder\04 - Lono, 3 Asapk In Ame.wav
Pre-gap length 0:00:04.00
Peak level 94.4 %
Track quality 100.0 %
Test CRC AA8508B6
Copy CRC AA8508B6
Copy OK
Track 5
Filename C:\New Folder\05 - Lono, 4 Indent.wav
Pre-gap length 0:00:04.00
Peak level 87.5 %
Track quality 100.0 %
Test CRC EAF33456
Copy CRC EAF33456
Copy OK
No errors occured
End of status report
 
cue
 
I
REM GENRE Jazz
REM DATE 2005
REM DISCID 020E5201
REM COMMENT "ExactAudioCopy v0.95b4"
PERFORMER "Cecil Taylor Unit"
TITLE "Akisakila"
FILE "01 - Bulu Akisakila Kutala (Vol 1).wav" WAVE
TRACK 01 AUDIO
TITLE "Bulu Akisakila Kutala (Vol 1)"
PERFORMER "Cecil Taylor Unit"
INDEX 01 00:00:00
 
II
REM GENRE Jazz
REM DATE 1973
REM DISCID 3E0C2205
REM COMMENT "ExactAudioCopy v0.95b4"
PERFORMER "Cecil Taylor"
TITLE "Akisakila (Vol.20"
FILE "01 - Bulu Akisakila Kutala, Pt 2.wav" WAVE
TRACK 01 AUDIO
TITLE "Bulu Akisakila Kutala, Pt 2"
PERFORMER "Cecil Taylor"
FLAGS DCP
INDEX 01 00:00:00
TRACK 02 AUDIO
TITLE "Lono, 1 Choral of Voice"
PERFORMER "Cecil Taylor"
FLAGS DCP
INDEX 00 20:37:42
FILE "02 - Lono, 1 Choral of Voice.wav" WAVE
INDEX 01 00:00:00
TRACK 03 AUDIO
TITLE "Lono, 2 Lono"
PERFORMER "Cecil Taylor"
FLAGS DCP
INDEX 00 07:14:48
FILE "03 - Lono, 2 Lono.wav" WAVE
INDEX 01 00:00:00
TRACK 04 AUDIO
TITLE "Lono, 3 Asapk In Ame"
PERFORMER "Cecil Taylor"
FLAGS DCP
INDEX 00 09:19:02
FILE "04 - Lono, 3 Asapk In Ame.wav" WAVE
INDEX 01 00:00:00
TRACK 05 AUDIO
TITLE "Lono, 4 Indent"
PERFORMER "Cecil Taylor"
FLAGS DCP
INDEX 00 07:02:55
FILE "05 - Lono, 4 Indent.wav" WAVE
INDEX 01 00:00:00
 
Отчёт Audiocheckera
AUDIOCHECKER v1.2 - by Dester - opdester@freemail.hu
~~~~~~~~~~~~~~~~~
1 -===- H:\Песеньки\lossless\cecil taylor\cecil taylor unit\akisakila\vol. 1\01 - Bulu Akisakila Kutala (Vol 1).flac
Extracted successfully
Conclusion: This track looks like CDDA with probability 100%
2 -===- H:\Песеньки\lossless\cecil taylor\cecil taylor unit\akisakila\vol. 2\01 - Bulu Akisakila Kutala, Pt 2.flac
Extracted successfully
Conclusion: This track looks like CDDA with probability 100%
3 -===- H:\Песеньки\lossless\cecil taylor\cecil taylor unit\akisakila\vol. 2\02 - Lono, 1 Choral of Voice.flac
Extracted successfully
Conclusion: This track looks like CDDA with probability 100%
4 -===- H:\Песеньки\lossless\cecil taylor\cecil taylor unit\akisakila\vol. 2\03 - Lono, 2 Lono.flac
Extracted successfully
Conclusion: This track looks like CDDA with probability 100%
5 -===- H:\Песеньки\lossless\cecil taylor\cecil taylor unit\akisakila\vol. 2\04 - Lono, 3 Asapk In Ame.flac
Extracted successfully
Conclusion: This track looks like CDDA with probability 100%
6 -===- H:\Песеньки\lossless\cecil taylor\cecil taylor unit\akisakila\vol. 2\05 - Lono, 4 Indent.flac
Extracted successfully
Conclusion: This track looks like CDDA with probability 100%
По всем вопросам пишите личное сообщение пользователю M0p94ok.
19:56
135
Нет комментариев. Ваш будет первым!