Поиск

(Modern Creative / Avant-Garde / Post-Bop / Sound Aspects) Andy Laster - Hippo Stomp - 1989, FLAC (image+.cue) lossless

(Modern Creative / Avant-Garde / Post-Bop / Sound Aspects) Andy Laster - Hippo Stomp - 1989, FLAC (image+.cue) lossless
Треклист:
Andy Laster / Hippo Stomp

Жанр: Modern Creative / Avant-Garde / Post-Bop
Страна-производитель диска: Germany
Год издания диска: 1989
Издатель (лейбл): Sound Aspects
Номер по каталогу: SAS 20
Страна: USA
Аудио кодек: FLAC (*.flac)
Тип рипа: image+.cue
Битрейт аудио: lossless
Продолжительность: 49:37
Источник (релизер): собственный рип
Наличие сканов в содержимом раздачи: нет
1. Xotland
2. The Purple Light
3. Agbayac
4. Vision
5. Hippo Stomp
6. Shippensburg
 
Лог создания рипа
Exact Audio Copy V0.99 prebeta 4 from 23. January 2008
EAC extraction logfile from 15. April 2010, 20:30
Andy Laster / Hippo Stomp
Used drive : TSSTcorpCD/DVDW SH-S182M Adapter: 1 ID: 0
Read mode : Secure
Utilize accurate stream : Yes
Defeat audio cache : Yes
Make use of C2 pointers : No
Read offset correction : 6
Overread into Lead-In and Lead-Out : No
Fill up missing offset samples with silence : Yes
Delete leading and trailing silent blocks : No
Null samples used in CRC calculations : Yes
Used interface : Installed external ASPI interface
Used output format : User Defined Encoder
Selected bitrate : 1024 kBit/s
Quality : High
Add ID3 tag : No
Command line compressor : C:\Program Files\Exact Audio Copy\Flac\flac.exe
Additional command line options : -8 -V -T "ARTIST=%a" -T "TITLE=%t" -T "ALBUM=%g" -T "DATE=%y" -T "TRACKNUMBER=%n" -T "GENRE=%m" -T "COMMENT=EAC FLAC -8" %s
TOC of the extracted CD
Track | Start | Length | Start sector | End sector
---------------------------------------------------------
1 | 0:00.32 | 7:06.60 | 32 | 32041
2 | 7:07.17 | 5:49.50 | 32042 | 58266
3 | 12:56.67 | 7:21.05 | 58267 | 91346
4 | 20:17.72 | 8:40.53 | 91347 | 130399
5 | 28:58.50 | 11:53.55 | 130400 | 183929
6 | 40:52.30 | 8:44.60 | 183930 | 223289
Range status and errors
Selected range
Filename C:\Users\Igor\Music\eac\Andy Laster - Hippo Stomp.wav
Peak level 94.7 %
Range quality 100.0 %
Test CRC AD56CA5C
Copy CRC AD56CA5C
Copy OK
No errors occurred
AccurateRip summary
Track 1 not present in database
Track 2 not present in database
Track 3 not present in database
Track 4 not present in database
Track 5 not present in database
Track 6 not present in database
None of the tracks are present in the AccurateRip database
End of status report
 
Состав
Frank Lacy: trombone, flugelhorn
Andy Laster: alto saxophone
Michele Rosewoman: piano
Drew Gress: bass
Phil Haynes: drums
По всем вопросам пишите личное сообщение пользователю M0p94ok.
03:36
176
Нет комментариев. Ваш будет первым!