Вы используете незарегистрированную версию компонента "Вкладки"!

Поиск

(Experimental Big Band / Modern Creative / Avant-Garde) Vienna Art Orchestra - Nightride of a Lonely Saxophoneplayer Vol.2 - 1986, FLAC (tracks+.cue) lossless

Треклист:
Vienna Art Orchestra - Nightride of a Lonely Saxophoneplayer Vol. 2
Жанр: Experimental Big Band / Modern Creative / Avant-Garde
Год издания диска: 1986
Издатель (лейбл): Moers Music
Номер по каталогу: 02055/CD
Аудио кодек: FLAC (*.flac)
Тип рипа: tracks+.cue
Битрейт аудио: lossless
Продолжительность: 0:59:28
Источник (релизер): What.CD (jazzcrime)
Наличие сканов в содержимом раздачи: нет
Треклист:
01. Nightride of a Lonely Saxophoneplayer 1 (5:45)
02. Black Roses (11:44)
03. Harmonic Sightseeing in a Strange City (6:59)
04. Sightride of a Lonely Saxophoneplayer (8:43)
05. Tears in Atlanta (9:55)
06. Valse Lente et Tres Triste (10:47)
07. Mutzerl (5:33)
Lauren Newton - vocals
Bumi Fian, Herbert Joos, Hannes Kottek - trumpets
Wolfgang Puschnig, Roman Schwaller, Harry Sokal - saxes
Christian Radovan - trombone
Jon Sass - tuba
Andy Manndorff - guitar
Heiri Känzig - bass
Uli Scherer - piano
Joris Dudli - drums
Tom Nicholas - percussion
Mathias Rüegg - composer, arranger
Recorded live October 85 in Le Locle, Hunziken, Genf and Basel by Peter Pfister
 
XLD Log
X Lossless Decoder version 20091108 (112.0)
XLD extraction logfile from 2010-03-04 21:46:36 +0000
Vienna Art Orchestra / Nightride of a Lonely Saxophoneplayer Vol.2
Used drive : Optiarc DVD RW AD-5240S (revision 1.03)
Use cdparanoia mode : YES (CDParanoia III 10.2 engine)
Disable audio cache : OK for the drive with cache less than 2750KB
Make use of C2 pointers : NO
Read offset correction : 48
Max retry count : 100
TOC of the extracted CD
Track | Start | Length | Start sector | End sector
---------------------------------------------------------
1 | 00:00:00 | 05:45:25 | 0 | 25899
2 | 05:45:25 | 11:44:37 | 25900 | 78736
3 | 17:29:62 | 06:59:05 | 78737 | 110166
4 | 24:28:67 | 08:43:15 | 110167 | 149406
5 | 33:12:07 | 09:55:18 | 149407 | 194049
6 | 43:07:25 | 10:46:70 | 194050 | 242569
7 | 53:54:20 | 05:33:22 | 242570 | 267566
Track 01
Filename : /Volumes/HFS1/XLD Rips/Vienna Art Orchestra - 1985 - Nightride of a Lonely Saxohphoneplayer Vol.2 (FLAC)/01 - Nightride of a Lonely Saxophoneplayer 1.flac
CRC32 hash (test run) : 7404D3DA
CRC32 hash : 7404D3DA
CRC32 hash (skip zero) : D58904FA
AccurateRip signature : 85A39136
->Accurately ripped! (confidence 4)
Statistics
Read error : 0
Skipped (treated as error) : 0
Edge jitter error (maybe fixed) : 0
Atom jitter error (maybe fixed) : 0
Drift error (maybe fixed) : 0
Dropped bytes error (maybe fixed) : 0
Duplicated bytes error (maybe fixed) : 0
Inconsistency in error sectors : 0
Track 02
Filename : /Volumes/HFS1/XLD Rips/Vienna Art Orchestra - 1985 - Nightride of a Lonely Saxohphoneplayer Vol.2 (FLAC)/02 - Black Roses.flac
CRC32 hash (test run) : 85DFA2BF
CRC32 hash : 85DFA2BF
CRC32 hash (skip zero) : E072D0C2
AccurateRip signature : 81A45DD7
->Accurately ripped! (confidence 4)
Statistics
Read error : 0
Skipped (treated as error) : 0
Edge jitter error (maybe fixed) : 0
Atom jitter error (maybe fixed) : 0
Drift error (maybe fixed) : 0
Dropped bytes error (maybe fixed) : 0
Duplicated bytes error (maybe fixed) : 0
Inconsistency in error sectors : 0
Track 03
Filename : /Volumes/HFS1/XLD Rips/Vienna Art Orchestra - 1985 - Nightride of a Lonely Saxohphoneplayer Vol.2 (FLAC)/03 - Harmonic Sightseeing in a Strange City.flac
CRC32 hash (test run) : E61112F9
CRC32 hash : E61112F9
CRC32 hash (skip zero) : 462D6C80
AccurateRip signature : 82330B4B
->Accurately ripped! (confidence 4)
Statistics
Read error : 0
Skipped (treated as error) : 0
Edge jitter error (maybe fixed) : 0
Atom jitter error (maybe fixed) : 0
Drift error (maybe fixed) : 0
Dropped bytes error (maybe fixed) : 0
Duplicated bytes error (maybe fixed) : 0
Inconsistency in error sectors : 0
Track 04
Filename : /Volumes/HFS1/XLD Rips/Vienna Art Orchestra - 1985 - Nightride of a Lonely Saxohphoneplayer Vol.2 (FLAC)/04 - Sightride of a Lonely Saxophoneplayer.flac
CRC32 hash (test run) : CE1DC29B
CRC32 hash : CE1DC29B
CRC32 hash (skip zero) : F96C2D66
AccurateRip signature : DEEF0806
->Accurately ripped! (confidence 4)
Statistics
Read error : 0
Skipped (treated as error) : 0
Edge jitter error (maybe fixed) : 0
Atom jitter error (maybe fixed) : 0
Drift error (maybe fixed) : 0
Dropped bytes error (maybe fixed) : 0
Duplicated bytes error (maybe fixed) : 0
Inconsistency in error sectors : 0
Track 05
Filename : /Volumes/HFS1/XLD Rips/Vienna Art Orchestra - 1985 - Nightride of a Lonely Saxohphoneplayer Vol.2 (FLAC)/05 - Tears in Atlanta.flac
CRC32 hash (test run) : 2CE568BD
CRC32 hash : 2CE568BD
CRC32 hash (skip zero) : 0309F07D
AccurateRip signature : 2AD6BBE7
->Accurately ripped! (confidence 4)
Statistics
Read error : 0
Skipped (treated as error) : 0
Edge jitter error (maybe fixed) : 0
Atom jitter error (maybe fixed) : 0
Drift error (maybe fixed) : 0
Dropped bytes error (maybe fixed) : 0
Duplicated bytes error (maybe fixed) : 0
Inconsistency in error sectors : 0
Track 06
Filename : /Volumes/HFS1/XLD Rips/Vienna Art Orchestra - 1985 - Nightride of a Lonely Saxohphoneplayer Vol.2 (FLAC)/06 - Valse Lente et Tres Triste.flac
CRC32 hash (test run) : E566839E
CRC32 hash : E566839E
CRC32 hash (skip zero) : 50ACA7D7
AccurateRip signature : E8BCEB5F
->Accurately ripped! (confidence 4)
Statistics
Read error : 0
Skipped (treated as error) : 0
Edge jitter error (maybe fixed) : 0
Atom jitter error (maybe fixed) : 0
Drift error (maybe fixed) : 0
Dropped bytes error (maybe fixed) : 0
Duplicated bytes error (maybe fixed) : 0
Inconsistency in error sectors : 0
Track 07
Filename : /Volumes/HFS1/XLD Rips/Vienna Art Orchestra - 1985 - Nightride of a Lonely Saxohphoneplayer Vol.2 (FLAC)/07 - Mutzerl.flac
CRC32 hash (test run) : 5C836098
CRC32 hash : 5C836098
CRC32 hash (skip zero) : DA795AC7
AccurateRip signature : 4D9DBEF7
->Accurately ripped! (confidence 4)
Statistics
Read error : 0
Skipped (treated as error) : 0
Edge jitter error (maybe fixed) : 0
Atom jitter error (maybe fixed) : 0
Drift error (maybe fixed) : 0
Dropped bytes error (maybe fixed) : 0
Duplicated bytes error (maybe fixed) : 0
Inconsistency in error sectors : 0
No errors occurred
End of status report
 
Cue
TITLE "Nightride of a Lonely Saxophoneplayer Vol.2"
PERFORMER "Vienna Art Orchestra"
REM GENRE "Jazz"
REM DATE 1985
FILE "01 - Nightride of a Lonely Saxophoneplayer 1.wav" WAVE
TRACK 01 AUDIO
TITLE "Nightride of a Lonely Saxophoneplayer 1"
INDEX 01 00:00:00
FILE "02 - Black Roses.wav" WAVE
TRACK 02 AUDIO
TITLE "Black Roses"
INDEX 01 00:00:00
TRACK 03 AUDIO
TITLE "Harmonic Sightseeing in a Strange City"
INDEX 00 11:42:37
FILE "03 - Harmonic Sightseeing in a Strange City.wav" WAVE
INDEX 01 00:00:00
TRACK 04 AUDIO
TITLE "Sightride of a Lonely Saxophoneplayer"
INDEX 00 06:57:05
FILE "04 - Sightride of a Lonely Saxophoneplayer.wav" WAVE
INDEX 01 00:00:00
TRACK 05 AUDIO
TITLE "Tears in Atlanta"
INDEX 00 08:41:15
FILE "05 - Tears in Atlanta.wav" WAVE
INDEX 01 00:00:00
TRACK 06 AUDIO
TITLE "Valse Lente et Tres Triste"
INDEX 00 09:53:18
FILE "06 - Valse Lente et Tres Triste.wav" WAVE
INDEX 01 00:00:00
TRACK 07 AUDIO
TITLE "Mutzerl"
INDEX 00 10:44:70
FILE "07 - Mutzerl.wav" WAVE
INDEX 01 00:00:00
По всем вопросам пишите личное сообщение пользователю M0p94ok.
03:37
151
Нет комментариев. Ваш будет первым!