Вы используете незарегистрированную версию компонента "Вкладки"!

Поиск

(Modern Creative, Avant-Garde Jazz, Post-Bop) Phillip Johnston's Big Trouble - Phillip Johnston's Big Trouble - 1993 [Black Saint: 120152-2], FLAC (image+.cue) lossless

(Modern Creative, Avant-Garde Jazz, Post-Bop) Phillip Johnston's Big Trouble - Phillip Johnston's Big Trouble - 1993 [Black Saint: 120152-2], FLAC (image+.cue) lossless
Треклист:
Phillip Johnston's Big Trouble
Жанр: Modern Creative, Avant-Garde Jazz, Post-Bop
Год издания диска: 1993
Издатель (лейбл): Black Saint
Номер по каталогу: 120152-2
Аудио кодек: FLAC (*.flac)
Тип рипа: image+.cue
Битрейт аудио: lossless
Продолжительность: 1:05:00
Источник: Собственные рипы
Наличие сканов в содержимом раздачи: да
Треклист:
01. The Invisible World - 3:36
02. Step Tempest - 7:08
03. Hemline - 2:52
04. Walking The Dogma - 5:53
05. 12 Bars - 4:47
06. Natural Confusion/Waltz Of The Untouched - 9:11
07. Chillbone - 9:54
08. The Hymn Of The Souls Who Are Passing/Still Water - 11:20
09. Nudididity - 7:07
10. Powerhouse - 3:13
.
 
МУЗЫКАНТЫ
Phillip Johnston - Alto & Soprano Saxophones
Robert DeBellis - Soprano & Baritone Saxophones, Bass Clarinet
Jim Leff - Trombone
Joe Ruddick - Keyboards, Sampler, Alto Saxophone
Dave Hofstra - Bass, Fender Bass, Tuba
Kevin Norton - Drums, Percussion, Marimba, Glockenspiel
David Tronzo - Slide Guitar
Adam Rogers - Guitar
Marcus Rojas - Tuba
Richard Dworkin - Bongos, Talking Drum
 
Лог создания рипа
Exact Audio Copy V1.0 beta 1 from 15. November 2010
EAC extraction logfile from 4. January 2011, 14:31
Phillip Johnston's Big Trouble / Phillip Johnston's Big Trouble
Used drive : HL-DT-STDVD-RAM GSA-H55N Adapter: 0 ID: 2
Read mode : Secure
Utilize accurate stream : Yes
Defeat audio cache : Yes
Make use of C2 pointers : No
Read offset correction : 102
Overread into Lead-In and Lead-Out : Yes
Fill up missing offset samples with silence : Yes
Delete leading and trailing silent blocks : No
Null samples used in CRC calculations : Yes
Used interface : Installed external ASPI interface
Used output format : User Defined Encoder
Selected bitrate : 128 kBit/s
Quality : High
Add ID3 tag : No
Command line compressor : G:\Program Files\Exact Audio Copy\Encoder\flac.exe
Additional command line options : -V -8 -T "Genre=%m" -T "Date=%y" -T "Comment=EAC1.0b1 -8" %s
TOC of the extracted CD
Track | Start | Length | Start sector | End sector
---------------------------------------------------------
1 | 0:00.33 | 3:36.17 | 33 | 16249
2 | 3:36.50 | 7:07.65 | 16250 | 48339
3 | 10:44.40 | 2:51.45 | 48340 | 61209
4 | 13:36.10 | 5:52.65 | 61210 | 87674
5 | 19:29.00 | 4:46.48 | 87675 | 109172
6 | 24:15.48 | 9:11.12 | 109173 | 150509
7 | 33:26.60 | 9:53.60 | 150510 | 195044
8 | 43:20.45 | 11:19.73 | 195045 | 246042
9 | 54:40.43 | 7:07.27 | 246043 | 278094
10 | 61:47.70 | 3:12.38 | 278095 | 292532
Range status and errors
Selected range
Filename F:\WAV\Phillip Johnston's Big Trouble.wav
Peak level 84.8 %
Extraction speed 0.3 X
Range quality 100.0 %
Test CRC 369FF103
Copy CRC 369FF103
Copy OK
No errors occurred
AccurateRip summary
Track 1 accurately ripped (confidence 1) [468F808F]
Track 2 accurately ripped (confidence 1) [524C56D6]
Track 3 accurately ripped (confidence 1) [CCFD4A85]
Track 4 accurately ripped (confidence 1) [5DD3135C]
Track 5 accurately ripped (confidence 1) [700898B9]
Track 6 accurately ripped (confidence 1) [0113D972]
Track 7 accurately ripped (confidence 1) [BCF1B0F8]
Track 8 accurately ripped (confidence 1) [B68B178A]
Track 9 accurately ripped (confidence 1) [33349EDA]
Track 10 accurately ripped (confidence 1) [2F64E204]
All tracks accurately ripped
End of status report
==== Log checksum 2CA160ED5E9D3CB86E12F4D04C5DC7956AB130ACD10F1E832D16D0308C80F61E ====
 
Содержание индексной карты (.CUE)
REM GENRE Jazz
REM DATE 1993
REM DISCID 7F0F3C0A
REM COMMENT "ExactAudioCopy v1.0b1"
PERFORMER "Phillip Johnston's Big Trouble"
TITLE "Phillip Johnston's Big Trouble"
FILE "Phillip Johnston's Big Trouble.flac" WAVE
TRACK 01 AUDIO
TITLE "The Invisible World"
PERFORMER "Phillip Johnston's Big Trouble"
INDEX 00 00:00:00
INDEX 01 00:00:33
TRACK 02 AUDIO
TITLE "Step Tempest"
PERFORMER "Phillip Johnston's Big Trouble"
INDEX 01 03:36:50
TRACK 03 AUDIO
TITLE "Hemline"
PERFORMER "Phillip Johnston's Big Trouble"
INDEX 01 10:44:40
TRACK 04 AUDIO
TITLE "Walking The Dogma"
PERFORMER "Phillip Johnston's Big Trouble"
INDEX 01 13:36:10
TRACK 05 AUDIO
TITLE "12 Bars"
PERFORMER "Phillip Johnston's Big Trouble"
INDEX 01 19:29:00
TRACK 06 AUDIO
TITLE "Natural Confusion/Waltz Of The Untouched"
PERFORMER "Phillip Johnston's Big Trouble"
INDEX 01 24:15:48
TRACK 07 AUDIO
TITLE "Chillbone"
PERFORMER "Phillip Johnston's Big Trouble"
INDEX 01 33:26:60
TRACK 08 AUDIO
TITLE "The Hymn Of The Souls Who Are Passing/Still Water"
PERFORMER "Phillip Johnston's Big Trouble"
INDEX 01 43:20:45
TRACK 09 AUDIO
TITLE "Nudididity"
PERFORMER "Phillip Johnston's Big Trouble"
INDEX 01 54:40:43
TRACK 10 AUDIO
TITLE "Powerhouse"
PERFORMER "Phillip Johnston's Big Trouble"
INDEX 01 61:47:70
Any questions -> support@pro-jazz.com. По всем вопросам пишите -> support@pro-jazz.com
07:15
146
Нет комментариев. Ваш будет первым!