Вы используете незарегистрированную версию компонента "Вкладки"!

Поиск

(Free Improvisation, Free Jazz) Tim Berne & Michael Formanek - Ornery People - 1998, FLAC (tracks+.cue) lossless

Треклист:
Tim Berne & Michael Formanek - Ornery People
Жанр: Free Improvisation, Free Jazz
Страна-производитель диска: USA
Год издания диска: 1998
Издатель (лейбл): Little Brother Records
Номер по каталогу: lb 013
Страна: USA
Аудио кодек: FLAC (*.flac)
Тип рипа: tracks+.cue
Битрейт аудио: lossless
Продолжительность: 1:01:36
Источник (релизер): собственный рип с оригинального диска.
Наличие сканов в содержимом раздачи: да
Треклист:
01. jiggle the handle
02. byram's world
03. stubborn love
04. are we there yet?
05. emerger
06. brincident
 
Лог создания рипа
Exact Audio Copy V0.99 prebeta 5 from 4. May 2009
EAC extraction logfile from 4. January 2011, 1:00
Tim Berne & Michael Formanek / Ornery People
Used drive : TSSTcorpCDDVDW SH-S222A Adapter: 1 ID: 0
Read mode : Secure
Utilize accurate stream : Yes
Defeat audio cache : Yes
Make use of C2 pointers : No
Read offset correction : 6
Overread into Lead-In and Lead-Out : No
Fill up missing offset samples with silence : Yes
Delete leading and trailing silent blocks : No
Null samples used in CRC calculations : Yes
Used interface : Installed external ASPI interface
Gap handling : Appended to previous track
Used output format : User Defined Encoder
Selected bitrate : 768 kBit/s
Quality : High
Add ID3 tag : No
Command line compressor : C:\Tool\Compress\FLAC\flac.exe
Additional command line options : -V -8 -T "ARTIST=%a" -T "TITLE=%t" -T "ALBUM=%g" -T "TRACKNUMBER=%n" -T "GENRE=%m" %s
TOC of the extracted CD
Track | Start | Length | Start sector | End sector
---------------------------------------------------------
1 | 0:00.01 | 12:51.44 | 1 | 57869
2 | 12:51.45 | 7:05.15 | 57870 | 89759
3 | 19:56.60 | 7:57.03 | 89760 | 125537
4 | 27:53.63 | 9:44.05 | 125538 | 169342
5 | 37:37.68 | 9:52.22 | 169343 | 213764
6 | 47:30.15 | 14:06.05 | 213765 | 277219
Track 1
Filename C:\! RUTRACKER\ru up\Berne-Formanek - Ornery People\01 - jiggle the handle (Formanek).wav
Pre-gap length 0:00:02.01
Peak level 61.0 %
Track quality 100.0 %
Test CRC 827B916D
Copy CRC 827B916D
Accurately ripped (confidence 3) [7A26FDC7]
Copy OK
Track 2
Filename C:\! RUTRACKER\ru up\Berne-Formanek - Ornery People\02 - byram's world (Berne).wav
Peak level 62.3 %
Track quality 100.0 %
Test CRC 3C85938A
Copy CRC 3C85938A
Accurately ripped (confidence 3) [CED99D8E]
Copy OK
Track 3
Filename C:\! RUTRACKER\ru up\Berne-Formanek - Ornery People\03 - stubborn love (Berne).wav
Peak level 60.2 %
Track quality 100.0 %
Test CRC 5B3A9E08
Copy CRC 5B3A9E08
Accurately ripped (confidence 3) [774ED522]
Copy OK
Track 4
Filename C:\! RUTRACKER\ru up\Berne-Formanek - Ornery People\04 - are we there yet (Berne).wav
Peak level 61.5 %
Track quality 100.0 %
Test CRC 63826524
Copy CRC 63826524
Accurately ripped (confidence 3) [864CFC1E]
Copy OK
Track 5
Filename C:\! RUTRACKER\ru up\Berne-Formanek - Ornery People\05 - emerger (Formanek).wav
Peak level 61.7 %
Track quality 100.0 %
Test CRC 2C96EC53
Copy CRC 2C96EC53
Accurately ripped (confidence 3) [A7990F41]
Copy OK
Track 6
Filename C:\! RUTRACKER\ru up\Berne-Formanek - Ornery People\06 - brincident (Berne & Formanek).wav
Peak level 63.9 %
Track quality 100.0 %
Test CRC C8309C5D
Copy CRC C8309C5D
Track not present in AccurateRip database
Copy OK
5 track(s) accurately ripped
1 track(s) not present in the AccurateRip database
Some tracks could not be verified as accurate
No errors occurred
End of status report
 
Содержание индексной карты (.CUE)
REM GENRE Jazz
REM DATE 1997
REM DISCID 5C0E7006
REM COMMENT "ExactAudioCopy v0.99pb5"
PERFORMER "Tim Berne & Michael Formanek"
TITLE "Ornery People"
FILE "01 - jiggle the handle (Formanek).wav" WAVE
TRACK 01 AUDIO
TITLE "jiggle the handle (Formanek)"
PERFORMER "Tim Berne & Michael Formanek"
ISRC 000000000000
FLAGS DCP
PREGAP 00:00:01
INDEX 01 00:00:00
FILE "02 - byram's world (Berne).wav" WAVE
TRACK 02 AUDIO
TITLE "byram's world (Berne)"
PERFORMER "Tim Berne & Michael Formanek"
ISRC 000000000000
FLAGS DCP
INDEX 01 00:00:00
FILE "03 - stubborn love (Berne).wav" WAVE
TRACK 03 AUDIO
TITLE "stubborn love (Berne)"
PERFORMER "Tim Berne & Michael Formanek"
ISRC 000000000000
INDEX 01 00:00:00
FILE "04 - are we there yet (Berne).wav" WAVE
TRACK 04 AUDIO
TITLE "are we there yet (Berne)"
PERFORMER "Tim Berne & Michael Formanek"
ISRC 000000000000
FLAGS DCP
INDEX 01 00:00:00
FILE "05 - emerger (Formanek).wav" WAVE
TRACK 05 AUDIO
TITLE "emerger (Formanek)"
PERFORMER "Tim Berne & Michael Formanek"
ISRC 000000000000
FLAGS DCP
INDEX 01 00:00:00
FILE "06 - brincident (Berne & Formanek).wav" WAVE
TRACK 06 AUDIO
TITLE "brincident (Berne & Formanek)"
PERFORMER "Tim Berne & Michael Formanek"
ISRC 000000000000
FLAGS DCP
INDEX 01 00:00:00
Доп. информация:
Recorded October 6 & 7th, 1997 at the Mat Bevel Institute in Tucson, Arizona.
Includes liner notes by Tim Berne.
 
Об исполнителе (группе)
Saxophone and bass free-jazz duo action from two of the best improvisers around. Berne has been making records for close to 20 years with the likes of Zorn, Motian, Frisell, Dara, and many others. Formanek plays bass in Berne's Bloodcount group and has released a couple records of his own. Though they've played together for years, this is the first recording of Berne and Formanek as a duo, and it's all that any of us could have hoped it would be.
 
Об альбоме (сборнике)
These sessions were done at the Mat Bevel Institute in Tuscon, AZ, between alto/baritone saxophonist Berne and acoustic upright bassist Formanek. These days Berne is more free of clichés than ever before, and his sound on alto defined and refined. Formanek is simply one of the more workmanlike, reliable swingers or improvisers on his instrument, whichever he chooses. The near-13-minute "Jiggle the Handle" finds the two relatively restrained and in a slower groover before building to a kinetic bassline, Berne still calm before briefly over-blowing his top. "Byram's World," has a steeping, repeated 11/8 figure, letting both loose on this most captivating piece, surely a highlight. "Stubborn Love" has Berne squawky on baritone sax, exploiting its upper register, and in a more soulful timbre alongside Formanek's skittering pizzicato. "Are We There Yet?" is written by Berne but has a 3-plus minute bass intro by Formanek, while "Emerger," penned by Formanek, has Berne leading solo. These pieces spotlight Bern's salty alto inquisitive and up on the former cut with probing bass pushing edges, the latter prompting more sonic blasts. "Brincident" is a 14-minute improvisation with a unison groove line that feeds into Bern's baritone, plugging in on a lower voltage jolt leading to screaming shock waves of sound, then settling down, and departing, Formanek riding shotgun all the way on his contrabass. These two are well in tune with each others notions, providing listeners with a golden opportunity to hear both of them in a natural setting that sometimes can be covered up by a larger grouping.
 
Состав
Tim Berne - baritone and alto saxophones
Michael Formanek - bass
По всем вопросам пишите личное сообщение пользователю M0p94ok.
07:14
141
Нет комментариев. Ваш будет первым!