Вы используете незарегистрированную версию компонента "Вкладки"!

Поиск

(Modern Creative / Avant-Garde Jazz) Michael Riessler (Pierre Charial, Robby Ameen, Manuel Orza, Max Merseny, Stefanie Lottermoser, Andreas Unterreiner, Johannes Schneider ...) - Big Circle - 2011 [Intuition INT 3435 2], FLAC (tracks+.cue), lossless

(Modern Creative / Avant-Garde Jazz) Michael Riessler (Pierre Charial, Robby Ameen, Manuel Orza, Max Merseny, Stefanie Lottermoser, Andreas Unterreiner, Johannes Schneider ...) - Big Circle - 2011 [Intuition INT 3435 2], FLAC (tracks+.cue), lossless
Треклист:
Michael Riessler - Big Circle
Жанр: Modern Creative / Avant-Garde Jazz
Страна-производитель диска: Austria
Год издания диска: 2011
Дата выхода диска: 01.02.2012
Издатель (лейбл): Intuition
Номер по каталогу: INT 3435 2
Аудиокодек: FLAC (*.flac)
Тип рипа: tracks+.cue
Битрейт аудио: lossless
Продолжительность: 00:51:02
Источник (релизер): собственный рип с оригинального Audio CD
Наличие сканов в содержимом раздачи: да
Треклист:
1. introduction (04:42)
2. raster (02:25)
3. double (03:53)
4. circle (04:02)
5. tthh (04:45)
6. indy (07:01)
7. net (06:42)
8. aruno (03:41)
9. berenice (06:39)
10. bonus track: hemis (07:00)
all composition by Michael Riessler
Доп. информация:
Musicians:
Pierre Charial - barrel organ
Robby Ameen - drums
Manuel Orza - e-bass
Michael Riessler - bass clarinet, sopranino saxophone
Max Merseny - alto saxophone
Stefanie Lottermoser - tenor saxophone
Andreas Unterreiner - trumpet
Johannes Schneider - trumpet
Peter Palmer - trombone
Peter Laib - cimbasso
mr hurricane brass feat. Terry Bozzio - drums (10)
recording: 20-23 April 2010, Carsten Vollmer, Markus Spatz, BR Studio Franken / recording hemis: 2002-2011
© 2011 INTUITION, a division of SCHOTT MUSIC & MEDIA GmbH, Mainz, Germany
Michael Riessler - Big Circle intuition-music.com
Michael Riessler - Big Circle challengerecords.com
Michael Riessler Official Site
Pierre Charial musique-mecanique.net
 
... text ...
"Ich könnte mich nie hinsetzen und einfach nur ein Stück schreiben. Um überhaupt meine eigene kompositorische Sprache zu finden, brauche ich eine völlig abseitige Grammatik. Ich will Unbekanntes hören, etwas aus der Luft greifen und zusammenfügen, und mich dabei immer wieder selbst überraschen" Michael Riessler
 
... photo ...

 
... back ...
 
... pack ...

 
Album Info
Darf der das? Mehr als einmal überfallen einen beim Hören von „Big Circle“, dem neuesten Album von Michael Riessler, Assoziationen zu den großorchestralen Werken Frank Zappas. Und das ist wohl auch mehr als beabsichtigt. Doch während andere Musiker in Ehrfurcht vor dem FZ-Werk erstarren und Note für Note dessen Kompositionen nachzuspielen versuchen, gewinnt Riessler, indem er diese Assoziationen selbstbewusst in sein eigenes Werk integriert. Und gerade deshalb kann man aufrecht behaupten: der darf das! Erst recht, wenn wir hier in Kurzform den bisherigen musikalischen Werdegang des Klarinettisten und Komponisten Riessler, der ihn über jeden Zweifel erhebt, aufzeigen:
Komponist und Musiker des französischen „Orchestre National de Jazz“, Mitglied der „Kölner Saxophon Mafia“, Aufnahmen und Tourneen mit Chris Newman & Janet Smith, Auftritte in The Kitchen und der Knitting Factory (beide New York) oder dem North Sea Jazz Festival in Den Haag, Solo-Tourneen mit einem Karlheinz Stockhausen-Programm (u.a. in Russland), Zusammenarbeit mit (dies ist wirklich nur eine ganz kleine Auwahl) David Byrne, Carla Bley, Michel Portal, Eberhard Weber, Henri Texier, Renaud Garcia Fons, Steve Reich, John Cage, Otto Sander, Michel Godard, Tomasz Stanko, Michael Gibbs. Und seit nunmehr zehn Jahren verbindet ihn zudem eine innige musikalische Freundschaft mit FZ-Drummer Terry Bozzio – der auch gleich beim Track „Hemis“ seine Trommelstöcke wirbeln lässt.
Überhaupt „Hemis“. Das ist zum einen das Abschlussstück von „Big Circle“. Es schließt andererseits auch einen „work in progress“ von Riessler ab – oder vielleicht ist es auch „nur“ ein Zwischen-Statement, denn die Karriere von Michael Riessler ist ja noch längst nicht zu Ende. Im Gegensatz zum restlichen Album, das komplett in Nürnberg aufgenommen wurde, ist Hemis ein über einen Zeitraum von zehn Jahren entstandenes Werk, zu dem viele Weggefährten Riesslers ihren kreativen Input geben konnten. Neben dem bereits erwähnten Bozzio sind dies unter anderem Mike Svoboda, Bobby Rangell, Bill Forman, Klaus Burger und Justafré.
Neben seinen Tätigkeiten als Professor an der Hochschule für Musik und Theater München, als Artistic Director der „scuola sperimentale di cinema”, Rom, für das Laboratorium Improvisation/Komposition für Film, 2011 versehen mit einem Arbeitsstipendium an der „Villa Massimo Rom”, Composer in Residence im Louisiana Museum Kopenhagen und als Leiter von Jazz-und Improvisationskursen u.a. in Orleans, Toronto, Montreal, Tokio, Chapel Hill (North Carolina) oder diversen Darmstädter Kursen für Jazz und Improvisation findet Riessler immer wieder Zeit, Neues auszutarieren und dies in konservierter Form zu veröffentlichen. Seine Diskografie zählt mehr als dreißig Alben, darunter waghalsige Jazz-Aufnahmen, Hörspiele, moderne Klassik und Filmmusik.
Riessler selbst beschreibt seinen musikalischen Ansatz so: „Ich könnte mich nie hinsetzen und einfach nur ein Stück schreiben. Um überhaupt meine eigene kompositorische Sprache zu finden, brauche ich eine völlig abseitige Grammatik. Ich will Unbekanntes hören, etwas aus der Luft greifen und zusammenfügen, und mich dabei immer wieder selbst überraschen“.
Mit dem Album „Big Circle“ hat er es geschafft, nicht nur sich selbst, sondern auch uns positiv zu überraschen.
~ intuition-music.com
 
EAC / evidence
 
EAC extraction logfile from 4. May 2012, 16:13
Exact Audio Copy V1.0 beta 3 from 29. August 2011
EAC extraction logfile from 4. May 2012, 16:13
Michael Riessler / Big Circle
Used drive : Optiarc DVD RW AD-7260S Adapter: 2 ID: 0
Read mode : Secure
Utilize accurate stream : Yes
Defeat audio cache : Yes
Make use of C2 pointers : No
Read offset correction : 48
Overread into Lead-In and Lead-Out : No
Fill up missing offset samples with silence : Yes
Delete leading and trailing silent blocks : No
Null samples used in CRC calculations : Yes
Used interface : Native Win32 interface for Win NT & 2000
Gap handling : Appended to previous track
Used output format : User Defined Encoder
Selected bitrate : 128 kBit/s
Quality : High
Add ID3 tag : No
Command line compressor : D:\Program Files\Exact Audio Copy 1.0 beta3\Flac\flac.exe
Additional command line options : -V -8 -T "Genre=%genre%" -T "Artist=%artist%" -T "Title=%title%" -T "Album=%albumtitle%" -T "Date=%year%" -T "Tracknumber=%tracknr%" -T "Comment=%comment%" %source%
TOC of the extracted CD
Track | Start | Length | Start sector | End sector
---------------------------------------------------------
1 | 0:00.00 | 4:43.44 | 0 | 21268
2 | 4:43.44 | 2:27.42 | 21269 | 32335
3 | 7:11.11 | 3:53.42 | 32336 | 49852
4 | 11:04.53 | 4:02.13 | 49853 | 68015
5 | 15:06.66 | 4:47.39 | 68016 | 89579
6 | 19:54.30 | 7:01.26 | 89580 | 121180
7 | 26:55.56 | 6:42.46 | 121181 | 151376
8 | 33:38.27 | 3:42.58 | 151377 | 168084
9 | 37:21.10 | 6:38.50 | 168085 | 197984
10 | 43:59.60 | 7:00.30 | 197985 | 229514
Track 1
Filename L:\rip by readab\Michael Riessler - Big Circle (2011)\01 - introduction.wav
Pre-gap length 0:00:02.00
Peak level 98.7 %
Extraction speed 2.4 X
Track quality 100.0 %
Test CRC 5AF23988
Copy CRC 5AF23988
Track not present in AccurateRip database
Copy OK
Track 2
Filename L:\rip by readab\Michael Riessler - Big Circle (2011)\02 - raster.wav
Pre-gap length 0:00:01.22
Peak level 98.6 %
Extraction speed 2.4 X
Track quality 100.0 %
Test CRC 2209A13C
Copy CRC 2209A13C
Track not present in AccurateRip database
Copy OK
Track 3
Filename L:\rip by readab\Michael Riessler - Big Circle (2011)\03 - double.wav
Pre-gap length 0:00:01.73
Peak level 98.8 %
Extraction speed 2.8 X
Track quality 100.0 %
Test CRC F3781EF1
Copy CRC F3781EF1
Track not present in AccurateRip database
Copy OK
Track 4
Filename L:\rip by readab\Michael Riessler - Big Circle (2011)\04 - circle.wav
Peak level 79.3 %
Extraction speed 3.0 X
Track quality 100.0 %
Test CRC 7FDEE7D1
Copy CRC 7FDEE7D1
Track not present in AccurateRip database
Copy OK
Track 5
Filename L:\rip by readab\Michael Riessler - Big Circle (2011)\05 - tthh.wav
Peak level 98.6 %
Extraction speed 2.9 X
Track quality 99.9 %
Test CRC 9E7427FE
Copy CRC 9E7427FE
Track not present in AccurateRip database
Copy OK
Track 6
Filename L:\rip by readab\Michael Riessler - Big Circle (2011)\06 - indy.wav
Pre-gap length 0:00:02.15
Peak level 100.0 %
Extraction speed 3.7 X
Track quality 100.0 %
Test CRC F392EDBC
Copy CRC F392EDBC
Track not present in AccurateRip database
Copy OK
Track 7
Filename L:\rip by readab\Michael Riessler - Big Circle (2011)\07 - net.wav
Peak level 99.0 %
Extraction speed 4.0 X
Track quality 100.0 %
Test CRC 60B23E0D
Copy CRC 60B23E0D
Track not present in AccurateRip database
Copy OK
Track 8
Filename L:\rip by readab\Michael Riessler - Big Circle (2011)\08 - aruno.wav
Peak level 98.6 %
Extraction speed 3.4 X
Track quality 99.9 %
Test CRC 81DB5496
Copy CRC 81DB5496
Track not present in AccurateRip database
Copy OK
Track 9
Filename L:\rip by readab\Michael Riessler - Big Circle (2011)\09 - berenice.wav
Pre-gap length 0:00:01.30
Peak level 91.7 %
Extraction speed 4.4 X
Track quality 100.0 %
Test CRC 9553AF09
Copy CRC 9553AF09
Track not present in AccurateRip database
Copy OK
Track 10
Filename L:\rip by readab\Michael Riessler - Big Circle (2011)\10 - hemis.wav
Peak level 97.4 %
Extraction speed 4.7 X
Track quality 100.0 %
Test CRC 63205259
Copy CRC 63205259
Track not present in AccurateRip database
Copy OK
None of the tracks are present in the AccurateRip database
No errors occurred
End of status report
==== Log checksum 660A8B3B3C1F239AA8859BEB3C5CE92365A271050978FF303BA9DABB38C5E990 ====
 
Содержание индексной карты (.CUE)
REM GENRE Jazz
REM DATE 2011
REM DISCID 7A0BF40A
REM COMMENT "ExactAudioCopy v1.0b3"
PERFORMER "Michael Riessler"
TITLE "Big Circle"
FILE "01 - introduction.wav" WAVE
TRACK 01 AUDIO
TITLE "introduction"
PERFORMER "Michael Riessler"
ISRC DEF301000020
INDEX 01 00:00:00
TRACK 02 AUDIO
TITLE "raster"
PERFORMER "Michael Riessler"
ISRC DEF301000021
INDEX 00 04:42:22
FILE "02 - raster.wav" WAVE
INDEX 01 00:00:00
TRACK 03 AUDIO
TITLE "double"
PERFORMER "Michael Riessler"
ISRC DEF301000022
INDEX 00 02:25:44
FILE "03 - double.wav" WAVE
INDEX 01 00:00:00
FILE "04 - circle.wav" WAVE
TRACK 04 AUDIO
TITLE "circle"
PERFORMER "Michael Riessler"
ISRC DEF301000023
INDEX 01 00:00:00
FILE "05 - tthh.wav" WAVE
TRACK 05 AUDIO
TITLE "tthh"
PERFORMER "Michael Riessler"
ISRC DEF301000024
INDEX 01 00:00:00
TRACK 06 AUDIO
TITLE "indy"
PERFORMER "Michael Riessler"
ISRC DEF301000025
INDEX 00 04:45:24
FILE "06 - indy.wav" WAVE
INDEX 01 00:00:00
FILE "07 - net.wav" WAVE
TRACK 07 AUDIO
TITLE "net"
PERFORMER "Michael Riessler"
ISRC DEF301000026
INDEX 01 00:00:00
FILE "08 - aruno.wav" WAVE
TRACK 08 AUDIO
TITLE "aruno"
PERFORMER "Michael Riessler"
ISRC DEF301000027
INDEX 01 00:00:00
TRACK 09 AUDIO
TITLE "berenice"
PERFORMER "Michael Riessler"
ISRC DEF301000028
INDEX 00 03:41:28
FILE "09 - berenice.wav" WAVE
INDEX 01 00:00:00
FILE "10 - hemis.wav" WAVE
TRACK 10 AUDIO
TITLE "hemis"
PERFORMER "Michael Riessler"
ISRC DEF301000029
INDEX 01 00:00:00
... релизы с участием MICHAEL RIESSLER на трекере ...
Any questions -> support@pro-jazz.com. По всем вопросам пишите -> support@pro-jazz.com
00:36
147
Нет комментариев. Ваш будет первым!