Вы используете незарегистрированную версию компонента "Вкладки"!

Поиск

(Avant-Garde Jazz) Randy McKean (Paul Smoker, Drew Gress, Phil Haynes) - So Dig This Big Crux - 1992, FLAC (tracks+.cue), lossless

(Avant-Garde Jazz) Randy McKean (Paul Smoker, Drew Gress, Phil Haynes) - So Dig This Big Crux - 1992, FLAC (tracks+.cue), lossless
Треклист:
Randy McKean (Paul Smoker, Drew Gress, Phil Haynes) - So Dig This Big Crux
Жанр: Avant-Garde Jazz
Страна-производитель диска: USA
Год издания: 1992
Издатель (лейбл): Rastascan
Номер по каталогу: BRD-012
Страна: USA
Аудиокодек: FLAC (*.flac)
Тип рипа: tracks+.cue
Битрейт аудио: lossless
Продолжительность: 1:00:36
Источник (релизер): собственный
Наличие сканов в содержимом раздачи: есть
1 Preview (Line Fine #1)
2 Pivot
3 Centrifuge
4 Quilt
5 Marchling
6 Haze
7 Wholly Roller
8 Line Fine Lyon Seven (#2)
9 The Thickening
 
Лог создания рипа
Exact Audio Copy V1.0 beta 3 from 29. August 2011
EAC extraction logfile from 4. May 2012, 10:27
Randy McKean-Paul Smoker-Drew Gress-Phil Haynes / So Dig This Big Crux
Used drive : SlimtypeDVD A DS8A5SH Adapter: 0 ID: 1
Read mode : Secure
Utilize accurate stream : Yes
Defeat audio cache : Yes
Make use of C2 pointers : No
Read offset correction : 6
Overread into Lead-In and Lead-Out : No
Fill up missing offset samples with silence : Yes
Delete leading and trailing silent blocks : No
Null samples used in CRC calculations : Yes
Used interface : Native Win32 interface for Win NT & 2000
Gap handling : Appended to previous track
Used output format : User Defined Encoder
Selected bitrate : 128 kBit/s
Quality : High
Add ID3 tag : No
Command line compressor : C:\Program Files (x86)\Exact Audio Copy\Flac\flac.exe
Additional command line options : -V -8 -T "Genre=%genre%" -T "Artist=%artist%" -T "Title=%title%" -T "Album=%albumtitle%" -T "Date=%year%" -T "Tracknumber=%tracknr%" -T "Comment=%comment%" %source%
TOC of the extracted CD
Track | Start | Length | Start sector | End sector
---------------------------------------------------------
1 | 0:00.00 | 3:18.33 | 0 | 14882
2 | 3:18.33 | 5:19.62 | 14883 | 38869
3 | 8:38.20 | 10:28.10 | 38870 | 85979
4 | 19:06.30 | 4:40.38 | 85980 | 107017
5 | 23:46.68 | 12:12.65 | 107018 | 161982
6 | 35:59.58 | 4:47.07 | 161983 | 183514
7 | 40:46.65 | 7:17.03 | 183515 | 216292
8 | 48:03.68 | 6:51.22 | 216293 | 247139
9 | 54:55.15 | 5:44.53 | 247140 | 272992
Track 1
Filename D:\Musak 2\Paul Smoker\So Dig This Big Crux (1992)\01. Preview (Line Fine #1).wav
Pre-gap length 0:00:02.00
Peak level 92.0 %
Extraction speed 1.0 X
Track quality 100.0 %
Test CRC 890B76B7
Copy CRC 890B76B7
Copy OK
Track 2
Filename D:\Musak 2\Paul Smoker\So Dig This Big Crux (1992)\02. Pivot.wav
Pre-gap length 0:00:00.13
Peak level 92.8 %
Extraction speed 1.2 X
Track quality 100.0 %
Test CRC 55FA975F
Copy CRC 55FA975F
Copy OK
Track 3
Filename D:\Musak 2\Paul Smoker\So Dig This Big Crux (1992)\03. Centrifuge.wav
Pre-gap length 0:00:03.05
Peak level 92.3 %
Extraction speed 1.4 X
Track quality 99.9 %
Test CRC 8F4B5CFD
Copy CRC 8F4B5CFD
Copy OK
Track 4
Filename D:\Musak 2\Paul Smoker\So Dig This Big Crux (1992)\04. Quilt.wav
Pre-gap length 0:00:01.55
Peak level 93.0 %
Extraction speed 1.4 X
Track quality 99.9 %
Test CRC 61C2646F
Copy CRC 61C2646F
Copy OK
Track 5
Filename D:\Musak 2\Paul Smoker\So Dig This Big Crux (1992)\05. Marchling.wav
Pre-gap length 0:00:01.43
Peak level 93.2 %
Extraction speed 1.9 X
Track quality 100.0 %
Test CRC E86C5F1C
Copy CRC E86C5F1C
Copy OK
Track 6
Filename D:\Musak 2\Paul Smoker\So Dig This Big Crux (1992)\06. Haze.wav
Pre-gap length 0:00:02.03
Peak level 26.9 %
Extraction speed 1.9 X
Track quality 100.0 %
Test CRC CE6A54EC
Copy CRC CE6A54EC
Copy OK
Track 7
Filename D:\Musak 2\Paul Smoker\So Dig This Big Crux (1992)\07. Wholly Roller.wav
Pre-gap length 0:00:01.52
Peak level 91.1 %
Extraction speed 2.1 X
Track quality 100.0 %
Test CRC FC316891
Copy CRC FC316891
Copy OK
Track 8
Filename D:\Musak 2\Paul Smoker\So Dig This Big Crux (1992)\08. Line Fine Lyon Seven (#2).wav
Pre-gap length 0:00:01.30
Peak level 94.7 %
Extraction speed 2.2 X
Track quality 100.0 %
Test CRC 2B40E627
Copy CRC 2B40E627
Copy OK
Track 9
Filename D:\Musak 2\Paul Smoker\So Dig This Big Crux (1992)\09. The Thickening.wav
Pre-gap length 0:00:00.02
Peak level 92.6 %
Extraction speed 2.3 X
Track quality 100.0 %
Test CRC B7172D19
Copy CRC B7172D19
Copy OK
No errors occurred
End of status report
==== Log checksum 334182D7BE073378B23017A3500974DC97C213D0E6B2ACA14A1F9CE3FEE04CAA ====
 
Содержание индексной карты (.CUE)
REM GENRE Jazz
REM DATE 1992
REM DISCID 700E3709
REM COMMENT "ExactAudioCopy v1.0b3"
CATALOG 0000000000000
PERFORMER "Randy McKean-Paul Smoker-Drew Gress-Phil Haynes"
TITLE "So Dig This Big Crux"
FILE "01. Preview (Line Fine #1).wav" WAVE
TRACK 01 AUDIO
TITLE "Preview (Line Fine #1)"
PERFORMER "Randy McKean-Paul Smoker-Drew Gress-Phil Haynes"
INDEX 01 00:00:00
TRACK 02 AUDIO
TITLE "Pivot"
PERFORMER "Randy McKean-Paul Smoker-Drew Gress-Phil Haynes"
INDEX 00 03:18:20
FILE "02. Pivot.wav" WAVE
INDEX 01 00:00:00
TRACK 03 AUDIO
TITLE "Centrifuge"
PERFORMER "Randy McKean-Paul Smoker-Drew Gress-Phil Haynes"
INDEX 00 05:16:57
FILE "03. Centrifuge.wav" WAVE
INDEX 01 00:00:00
TRACK 04 AUDIO
TITLE "Quilt"
PERFORMER "Randy McKean-Paul Smoker-Drew Gress-Phil Haynes"
INDEX 00 10:26:30
FILE "04. Quilt.wav" WAVE
INDEX 01 00:00:00
TRACK 05 AUDIO
TITLE "Marchling"
PERFORMER "Randy McKean-Paul Smoker-Drew Gress-Phil Haynes"
INDEX 00 04:38:70
FILE "05. Marchling.wav" WAVE
INDEX 01 00:00:00
TRACK 06 AUDIO
TITLE "Haze"
PERFORMER "Randy McKean-Paul Smoker-Drew Gress-Phil Haynes"
INDEX 00 12:10:62
FILE "06. Haze.wav" WAVE
INDEX 01 00:00:00
TRACK 07 AUDIO
TITLE "Wholly Roller"
PERFORMER "Randy McKean-Paul Smoker-Drew Gress-Phil Haynes"
INDEX 00 04:45:30
FILE "07. Wholly Roller.wav" WAVE
INDEX 01 00:00:00
TRACK 08 AUDIO
TITLE "Line Fine Lyon Seven (#2)"
PERFORMER "Randy McKean-Paul Smoker-Drew Gress-Phil Haynes"
INDEX 00 07:15:48
FILE "08. Line Fine Lyon Seven (#2).wav" WAVE
INDEX 01 00:00:00
TRACK 09 AUDIO
TITLE "The Thickening"
PERFORMER "Randy McKean-Paul Smoker-Drew Gress-Phil Haynes"
INDEX 00 06:51:20
FILE "09. The Thickening.wav" WAVE
INDEX 01 00:00:00
 
Об альбоме
The odd title of this album is taken from the lyrics to a Minutemen song, but the listener will hear a lot more Anthony Braxton and Roscoe Mitchell in Randy McKean's work than any punk band. Indeed, the recording is dedicated to the former and includes two pieces by the latter. McKean's compositions tend to be knotty, post-bop structures with an underlying sense of swing and good humor, much in the manner of his mentors. He chose trumpeter Paul Smoker's working trio as his backup band, which performs finely throughout; in fact, Smoker sometimes steals the scene with playing that's a bit more individual than McKean's. There's a quirky march ("Marchling"), a pointillistic, quiet number ("Haze"), and even a quasi-spiritual ("Wholly Roller"), each performed with panache. But even in 1991, when the album was recorded, there was a sense of treading on well-worn ground. "Wholly Roller," for example, sounds like nothing so much as a variation on Mitchell's "Old" from 1967. This is not to say that there isn't any enjoyable, even fine playing on this record; there is. But the hosannas that greeted it when first released seem more based in a fervent hope that McKean might be radically extending a beloved tradition rather than appreciating the album for what it is: a solid, somewhat derivative effort.
by Brian Olewnick
 
Состав
Randy McKean - alto saxophone, bass clarinet
Paul Smoker - trumpet, flügelhorn
Drew Gress - bass
Phil Haynes - drums
Any questions -> support@pro-jazz.com. По всем вопросам пишите -> support@pro-jazz.com
00:36
140
Нет комментариев. Ваш будет первым!