Вы используете незарегистрированную версию компонента "Вкладки"!

Поиск

(Modern Creative, Avant-Garde Jazz) KABA-QuARTett - Kabalesque - 2001, FLAC (tracks+.cue), lossless

(Modern Creative, Avant-Garde Jazz) KABA-QuARTett - Kabalesque - 2001, FLAC (tracks+.cue), lossless
Треклист:
KABA-QuARTett / Kabalesque
Жанр: Modern Creative, Avant-Garde Jazz
Страна-производитель диска: Switzerland
Год издания: 2001
Издатель (лейбл): association suisse des musiciens - xopf records
Номер по каталогу: stv/asm 015 - xopf 35
Страна: Switzerland - Germany
Аудиокодек: FLAC (*.flac)
Тип рипа: tracks+.cue
Битрейт аудио: lossless
Продолжительность: 55:37
Источник (релизер): CD
Наличие сканов в содержимом раздачи: да
Треклист:
1. Schrei aus der Nacht (07:28)
2. Berastagi (13:05)
3. Millenium Communications Part one (06:43)
4. Millenium Communications Part two (06:23)
5. Supply - do why (05:05)
6. Bathroom Melody (08:51)
7. Common Speaking (07:48)
 
Лог создания рипа
Exact Audio Copy V1.0 beta 2 from 29. April 2011
EAC extraction logfile from 20. May 2013, 12:06
KABA QuARTett / Kabalesque
Used drive : Optiarc DVD RW AD-5280S Adapter: 1 ID: 1
Read mode : Secure
Utilize accurate stream : Yes
Defeat audio cache : Yes
Make use of C2 pointers : No
Read offset correction : 48
Overread into Lead-In and Lead-Out : No
Fill up missing offset samples with silence : Yes
Delete leading and trailing silent blocks : No
Null samples used in CRC calculations : Yes
Used interface : Installed external ASPI interface
Gap handling : Appended to previous track
Used output format : User Defined Encoder
Selected bitrate : 128 kBit/s
Quality : High
Add ID3 tag : No
Command line compressor : C:\Program Files\FLAC\flac.exe
Additional command line options : -V -8 -T "Genre=%genre%" -T "Artist=%artist%" -T "Title=%title%" -T "Album=%albumtitle%" -T "Date=%year%" -T "Tracknumber=%tracknr%" -T "Comment=%comment%" %source%
TOC of the extracted CD
Track | Start | Length | Start sector | End sector
---------------------------------------------------------
1 | 0:00.00 | 7:30.71 | 0 | 33820
2 | 7:30.71 | 13:07.32 | 33821 | 92877
3 | 20:38.28 | 6:43.68 | 92878 | 123170
4 | 27:22.21 | 6:25.61 | 123171 | 152106
5 | 33:48.07 | 5:07.60 | 152107 | 175191
6 | 38:55.67 | 8:53.55 | 175192 | 215221
7 | 47:49.47 | 7:48.28 | 215222 | 250349
Track 1
Filename C:\KABA QuARTett (2001) - Kabalesque\01 - Schrei aus der Nacht.wav
Pre-gap length 0:00:02.00
Peak level 91.0 %
Extraction speed 2.6 X
Track quality 100.0 %
Test CRC 422330B4
Copy CRC 422330B4
Track not present in AccurateRip database
Copy OK
Track 2
Filename C:\KABA QuARTett (2001) - Kabalesque\02 - Berastagi.wav
Pre-gap length 0:00:02.00
Peak level 96.6 %
Extraction speed 3.4 X
Track quality 100.0 %
Test CRC 5A7C1D72
Copy CRC 5A7C1D72
Track not present in AccurateRip database
Copy OK
Track 3
Filename C:\KABA QuARTett (2001) - Kabalesque\03 - Millenium Communications, Pt. One.wav
Pre-gap length 0:00:02.00
Peak level 100.0 %
Extraction speed 3.7 X
Track quality 100.0 %
Test CRC 5976238C
Copy CRC 5976238C
Track not present in AccurateRip database
Copy OK
Track 4
Filename C:\KABA QuARTett (2001) - Kabalesque\04 - Millenium Communications, Pt. Two.wav
Peak level 95.1 %
Extraction speed 4.0 X
Track quality 100.0 %
Test CRC C7375FF5
Copy CRC C7375FF5
Track not present in AccurateRip database
Copy OK
Track 5
Filename C:\KABA QuARTett (2001) - Kabalesque\05 - Supply - Do Why.wav
Pre-gap length 0:00:02.00
Peak level 100.0 %
Extraction speed 4.2 X
Track quality 100.0 %
Test CRC 00407342
Copy CRC 00407342
Track not present in AccurateRip database
Copy OK
Track 6
Filename C:\KABA QuARTett (2001) - Kabalesque\06 - Bathroom Melody.wav
Pre-gap length 0:00:02.00
Peak level 85.8 %
Extraction speed 4.7 X
Track quality 100.0 %
Test CRC 3FDAFA7B
Copy CRC 3FDAFA7B
Track not present in AccurateRip database
Copy OK
Track 7
Filename C:\KABA QuARTett (2001) - Kabalesque\07 - Common Speaking.wav
Pre-gap length 0:00:02.00
Peak level 90.8 %
Extraction speed 4.9 X
Track quality 100.0 %
Test CRC 270AB278
Copy CRC 270AB278
Track not present in AccurateRip database
Copy OK
None of the tracks are present in the AccurateRip database
No errors occurred
End of status report
==== Log checksum 0D22A37596DAF18305CEC2178882AE2BDA281A9C9422C2BDB7C31A76954B621C ====
 
Содержание индексной карты (.CUE)
REM GENRE Jazz
REM DATE 2001
REM DISCID 490D0A07
REM COMMENT "ExactAudioCopy v1.0b2"
PERFORMER "KABA QuARTett"
TITLE "Kabalesque"
FILE "01 - Schrei aus der Nacht.wav" WAVE
TRACK 01 AUDIO
TITLE "Schrei aus der Nacht"
PERFORMER "KABA QuARTett"
ISRC CH1170100046
INDEX 01 00:00:00
TRACK 02 AUDIO
TITLE "Berastagi"
PERFORMER "KABA QuARTett"
ISRC CH1170100047
INDEX 00 07:28:71
FILE "02 - Berastagi.wav" WAVE
INDEX 01 00:00:00
TRACK 03 AUDIO
TITLE "Millenium Communications, Pt. One"
PERFORMER "KABA QuARTett"
ISRC CH1170100048
INDEX 00 13:05:32
FILE "03 - Millenium Communications, Pt. One.wav" WAVE
INDEX 01 00:00:00
FILE "04 - Millenium Communications, Pt. Two.wav" WAVE
TRACK 04 AUDIO
TITLE "Millenium Communications, Pt. Two"
PERFORMER "KABA QuARTett"
ISRC CH1170100049
INDEX 01 00:00:00
TRACK 05 AUDIO
TITLE "Supply - Do Why"
PERFORMER "KABA QuARTett"
ISRC CH1170100050
INDEX 00 06:23:61
FILE "05 - Supply - Do Why.wav" WAVE
INDEX 01 00:00:00
TRACK 06 AUDIO
TITLE "Bathroom Melody"
PERFORMER "KABA QuARTett"
ISRC CH1170100051
INDEX 00 05:05:60
FILE "06 - Bathroom Melody.wav" WAVE
INDEX 01 00:00:00
TRACK 07 AUDIO
TITLE "Common Speaking"
PERFORMER "KABA QuARTett"
ISRC CH1170100052
INDEX 00 08:51:55
FILE "07 - Common Speaking.wav" WAVE
INDEX 01 00:00:00
 
Состав
JOPO - altosax, metalclarinet, electonics
Ingeborg Poffet - accordeon, voice, electronics
Johannes Frisch - contrabass
Michael Ströder - drums
Any questions -> support@pro-jazz.com. По всем вопросам пишите -> support@pro-jazz.com
00:08
139
Нет комментариев. Ваш будет первым!