Вы используете незарегистрированную версию компонента "Вкладки"!

Поиск

(Free Jazz, Modern Creative, Avant-garde) RED Trio + Nate Wooley - Stem [Clean Feed - CF249CD] - 2012, FLAC (tracks+.cue), lossless

Треклист:
RED Trio + Nate Wooley / Stem [ Clean Feed - CF249CD ]
Жанр: Free Jazz, Modern Creative, Avant-garde
Страна-производитель диска: Portugal
Год издания: 2012
Издатель (лейбл): Clean Feed
Номер по каталогу: CF249CD
Аудиокодек: FLAC (*.flac)
Тип рипа: tracks+.cue
Битрейт аудио: lossless
Продолжительность: 66:32
Источник (релизер): user787878
Наличие сканов в содержимом раздачи: да
Треклист:
1. Flapping Flight [16:31]
2. Phase [08:12]
3. Ellipse [19:15]
4. Weight Slice [10:05]
5. Tides [12:25]
recorded February 20 & 21, 2011
Namouche Studios, Lisbon/Portugal
 
Лог создания рипа
Exact Audio Copy V1.0 beta 3 from 29. August 2011
EAC extraction logfile from 17. April 2012, 8:16
RED Trio + Nate Wooley / STEM
Used drive : PLEXTOR CD-R PREMIUM2 Adapter: 3 ID: 0
Read mode : Secure
Utilize accurate stream : Yes
Defeat audio cache : Yes
Make use of C2 pointers : No
Read offset correction : 30
Overread into Lead-In and Lead-Out : Yes
Fill up missing offset samples with silence : Yes
Delete leading and trailing silent blocks : No
Null samples used in CRC calculations : Yes
Used interface : Native Win32 interface for Win NT & 2000
Gap handling : Appended to previous track
Used output format : User Defined Encoder
Selected bitrate : 128 kBit/s
Quality : High
Add ID3 tag : No
Command line compressor : D:\Programme\EAC10b2\Flac\flac.exe
Additional command line options : -5 -V -T "ARTIST=%artist%" -T "TITLE=%title%" -T "ALBUM=%albumtitle%" -T "DATE=%year%" -T "TRACKNUMBER=%tracknr%" -T "TOTALTRACKS=%numtracks%" -T "GENRE=%genre%" -T "ALBUM ARTIST=%albumartist%" -T "ALBUMARTIST=%albumartist%" -T "COMPOSER=%albumcomposer%" -T "PERFORMER=%albuminterpret%" %haslyrics%-T "LYRICS=%lyrics%"%haslyrics% -T "COMMENT=EAC V1.0 beta 3, Secure Mode, Test & Copy, AccurateRip, FLAC -5" %source%
TOC of the extracted CD
Track | Start | Length | Start sector | End sector
---------------------------------------------------------
1 | 0:00.00 | 16:31.39 | 0 | 74363
2 | 16:31.39 | 8:12.24 | 74364 | 111287
3 | 24:43.63 | 19:15.16 | 111288 | 197928
4 | 43:59.04 | 10:05.08 | 197929 | 243311
5 | 54:04.12 | 12:25.74 | 243312 | 299260
Track 1
Filename E:\Share\Jazz\P-T\RED trio + Nate Wooley - STEM (2012) [FLAC] {clean feed CF249CD}\01 - Flapping Flight.wav
Pre-gap length 0:00:02.00
Peak level 97.7 %
Extraction speed 10.3 X
Track quality 100.0 %
Test CRC 895FEA72
Copy CRC 895FEA72
Track not present in AccurateRip database
Copy OK
Track 2
Filename E:\Share\Jazz\P-T\RED trio + Nate Wooley - STEM (2012) [FLAC] {clean feed CF249CD}\02 - Phase.wav
Pre-gap length 0:00:02.00
Peak level 97.7 %
Extraction speed 11.5 X
Track quality 99.9 %
Test CRC C616E380
Copy CRC C616E380
Track not present in AccurateRip database
Copy OK
Track 3
Filename E:\Share\Jazz\P-T\RED trio + Nate Wooley - STEM (2012) [FLAC] {clean feed CF249CD}\03 - Ellipse.wav
Pre-gap length 0:00:02.00
Peak level 97.7 %
Extraction speed 14.6 X
Track quality 100.0 %
Test CRC 54A3DD90
Copy CRC 54A3DD90
Track not present in AccurateRip database
Copy OK
Track 4
Filename E:\Share\Jazz\P-T\RED trio + Nate Wooley - STEM (2012) [FLAC] {clean feed CF249CD}\04 - Weight Slice.wav
Pre-gap length 0:00:02.00
Peak level 97.7 %
Extraction speed 16.2 X
Track quality 100.0 %
Test CRC 7656A5D8
Copy CRC 7656A5D8
Track not present in AccurateRip database
Copy OK
Track 5
Filename E:\Share\Jazz\P-T\RED trio + Nate Wooley - STEM (2012) [FLAC] {clean feed CF249CD}\05 - Tides.wav
Pre-gap length 0:00:02.00
Peak level 89.6 %
Extraction speed 17.0 X
Track quality 99.9 %
Test CRC B1F250ED
Copy CRC B1F250ED
Track not present in AccurateRip database
Copy OK
None of the tracks are present in the AccurateRip database
No errors occurred
End of status report
---- CUETools DB Plugin V2.1.3
[CTDB TOCID: FsM8rpUK9SD8YeijSwiBiZguWpE-] disk not present in database, Submit result: FsM8rpUK9SD8YeijSwiBiZguWpE- has been uploaded
==== Log checksum 945399CCE2828524DBE225DA5250E8DC1E106FC9D12E2BC5DE6A22FC5D580B5E ====
 
Содержание индексной карты (.CUE)
REM GENRE "Avantgarde Jazz"
REM DATE 2012
REM DISCID 450F9605
REM COMMENT "ExactAudioCopy v1.0b3"
PERFORMER " RED Trio + Nate Wooley"
TITLE "STEM"
FILE "01 - Flapping Flight.flac" WAVE
TRACK 01 AUDIO
TITLE "Flapping Flight"
PERFORMER " RED Trio + Nate Wooley"
FLAGS DCP
INDEX 01 00:00:00
TRACK 02 AUDIO
TITLE "Phase"
PERFORMER " RED Trio + Nate Wooley"
FLAGS DCP
INDEX 00 16:29:39
FILE "02 - Phase.flac" WAVE
INDEX 01 00:00:00
TRACK 03 AUDIO
TITLE "Ellipse"
PERFORMER " RED Trio + Nate Wooley"
FLAGS DCP
INDEX 00 08:10:24
FILE "03 - Ellipse.flac" WAVE
INDEX 01 00:00:00
TRACK 04 AUDIO
TITLE "Weight Slice"
PERFORMER " RED Trio + Nate Wooley"
FLAGS DCP
INDEX 00 19:13:16
FILE "04 - Weight Slice.flac" WAVE
INDEX 01 00:00:00
TRACK 05 AUDIO
TITLE "Tides"
PERFORMER " RED Trio + Nate Wooley"
FLAGS DCP
INDEX 00 10:03:08
FILE "05 - Tides.flac" WAVE
INDEX 01 00:00:00
 
Об альбоме (сборнике)
RED trio’s latest free improvised collaboration is with Nate Wooley. Wooley returns from the lush drawn out soliloquy of The Almond back to the noise and jazz of his earlier recordings.
Stem is mostly a continuation of the RED trio’s previous collaboration with John Butcher the year before on Empire with Wooley floating above the civilizations and wastelands the trio pour out of their bag. “Flapping Flight” begins in the normal uncouth fashion of contemporary free jazz then takes flight into “Phase” and reverses course in “Weight Slice”.
The free non-jazz of “Ellipse” expands on the equation of “Pachiderm” as Wooley blows to an even greater deafening silence than Butcher that becomes almost pure silence on “Tides”, pushing normal and spastic “organized” sound over the edge and back around to the beginning where John Cage’s 4’33” meets the ubermensch; a state of refined primitivism ensues, a nihilistic nirvana, antiquating any notion of modernity.
 
Состав
Double Bass – Hernani Faustino
Drums – Gabriel Ferrandini
Piano – Rodrigo Pinheiro
Trumpet – Nate Wooley
Any questions -> support@pro-jazz.com. По всем вопросам пишите -> support@pro-jazz.com
00:08
146
Нет комментариев. Ваш будет первым!