Поиск

(Modern Composition, Structured Improvisation, ECM) Barry Guy - Folio - 2006, FLAC (tracks+.cue), lossless

Треклист:
Barry Guy - Folio
Жанр: Modern Composition, Structured Improvisation
Год выпуска диска: 2006
Производитель диска: ECM Records (ECM New Series 1931)
Источник: вот.сиди (weareborg)
Аудио кодек: FLAC
Тип рипа: tracks+.cue
Битрейт аудио: lossless
Продолжительность: 57:52
Трэклист:
1. Improvisation 1:27
2. Prelude - Ortiz I - Postlude 21:32
3. Improvised commentary 1:10
4. Folio Five I 3:24
5. Improvised commentary 1:34
6. Folio Five II 4:18
7. Improvised commentary 1:10
8. Folio Five III 3:54
9. Improvised commentary 1:20
10. Folio Five IV 4:24
11. Improvised commentary 1:06
12. Folio Five V 3:18
13. Memory 5:03
14. Ortiz II 4:11
Recorded February 2005
Maya Homburger baroque violin
Muriel Cantoreggi violin
Barry Guy double-bass
Münchener Kammerorchester
Christoph Poppen conductor
Весьма академическая музыка, но всё-таки я её разместил в джазе, потому что всё, что есть на треккере с участием Барри Гая, включая эту пластинку в мпз варианте, лежит в джазе.
 
Отчёт EAC
Exact Audio Copy V0.99 prebeta 4 from 23. January 2008
EAC extraction logfile from 12. August 2008, 10:36
Barry Guy / Folio
Used drive : HL-DT-STDVDRAM GSA-4167B Adapter: 1 ID: 0
Read mode : Secure
Utilize accurate stream : Yes
Defeat audio cache : Yes
Make use of C2 pointers : No
Read offset correction : 667
Overread into Lead-In and Lead-Out : No
Fill up missing offset samples with silence : Yes
Delete leading and trailing silent blocks : No
Null samples used in CRC calculations : Yes
Used interface : Native Win32 interface for Win NT & 2000
Gap handling : Appended to previous track
Used output format : Internal WAV Routines
Sample format : 44.100 Hz; 16 Bit; Stereo
TOC of the extracted CD
Track | Start | Length | Start sector | End sector
---------------------------------------------------------
1 | 0:00.00 | 1:27.03 | 0 | 6527
2 | 1:27.03 | 21:31.40 | 6528 | 103392
3 | 22:58.43 | 1:09.56 | 103393 | 108623
4 | 24:08.24 | 3:23.71 | 108624 | 123919
5 | 27:32.20 | 1:33.65 | 123920 | 130959
6 | 29:06.10 | 4:17.61 | 130960 | 150295
7 | 33:23.71 | 1:10.37 | 150296 | 155582
8 | 34:34.33 | 3:54.20 | 155583 | 173152
9 | 38:28.53 | 1:19.53 | 173153 | 179130
10 | 39:48.31 | 4:23.70 | 179131 | 198925
11 | 44:12.26 | 1:06.25 | 198926 | 203900
12 | 45:18.51 | 3:18.24 | 203901 | 218774
13 | 48:37.00 | 5:03.36 | 218775 | 241535
14 | 53:40.36 | 4:11.17 | 241536 | 260377
Track 1
Filename E:\Barry Guy - Folio\01 Improvisation.wav
Pre-gap length 0:00:02.00
Peak level 27.7 %
Track quality 100.0 %
Test CRC 82E0B582
Copy CRC 82E0B582
Copy OK
Track 2
Filename E:\Barry Guy - Folio\02 Prelude - Ortiz I - Postlude.wav
Peak level 76.1 %
Track quality 100.0 %
Test CRC 6AC0716C
Copy CRC 6AC0716C
Copy OK
Track 3
Filename E:\Barry Guy - Folio\03 Improvised commentary.wav
Peak level 47.9 %
Track quality 99.8 %
Test CRC 485E017A
Copy CRC 485E017A
Copy OK
Track 4
Filename E:\Barry Guy - Folio\04 Folio Five I.wav
Peak level 62.5 %
Track quality 100.0 %
Test CRC 9A2505B2
Copy CRC 9A2505B2
Copy OK
Track 5
Filename E:\Barry Guy - Folio\05 Improvised commentary.wav
Peak level 18.4 %
Track quality 100.0 %
Test CRC 2756AF83
Copy CRC 2756AF83
Copy OK
Track 6
Filename E:\Barry Guy - Folio\06 Folio Five II.wav
Peak level 9.2 %
Track quality 100.0 %
Test CRC B1A0949A
Copy CRC B1A0949A
Copy OK
Track 7
Filename E:\Barry Guy - Folio\07 Improvised commentary.wav
Peak level 87.7 %
Track quality 100.0 %
Test CRC 301BCC2C
Copy CRC 301BCC2C
Copy OK
Track 8
Filename E:\Barry Guy - Folio\08 Folio Five III.wav
Peak level 79.4 %
Track quality 100.0 %
Test CRC C3E14D65
Copy CRC C3E14D65
Copy OK
Track 9
Filename E:\Barry Guy - Folio\09 Improvised commentary.wav
Peak level 99.7 %
Track quality 99.8 %
Test CRC 29DCA2E0
Copy CRC 29DCA2E0
Copy OK
Track 10
Filename E:\Barry Guy - Folio\10 Folio Five IV.wav
Peak level 11.0 %
Track quality 100.0 %
Test CRC E5CF7DA5
Copy CRC E5CF7DA5
Copy OK
Track 11
Filename E:\Barry Guy - Folio\11 Improvised commentary.wav
Peak level 2.1 %
Track quality 100.0 %
Test CRC FE914DB4
Copy CRC FE914DB4
Copy OK
Track 12
Filename E:\Barry Guy - Folio\12 Folio Five V.wav
Peak level 87.7 %
Track quality 100.0 %
Test CRC D564241F
Copy CRC D564241F
Copy OK
Track 13
Filename E:\Barry Guy - Folio\13 Memory.wav
Peak level 55.4 %
Track quality 99.9 %
Test CRC 31D246A6
Copy CRC 31D246A6
Copy OK
Track 14
Filename E:\Barry Guy - Folio\14 Ortiz II.wav
Peak level 87.8 %
Track quality 100.0 %
Test CRC 4E7CA846
Copy CRC 4E7CA846
Copy OK
No errors occurred
End of status report
 
Отчёт Audiocheckera
AUDIOCHECKER v1.2 - by Dester - opdester@freemail.hu
~~~~~~~~~~~~~~~~~
01 -===- H:\Песеньки\lossless\barry guy\folio 2006\Barry Guy - Folio - 01 - Improvisation.flac
Extracted successfully
Conclusion: This track looks like CDDA with probability 100%
02 -===- H:\Песеньки\lossless\barry guy\folio 2006\Barry Guy - Folio - 02 - Prelude - Ortiz I - Postlude.flac
Extracted successfully
Conclusion: This track looks like CDDA with probability 100%
03 -===- H:\Песеньки\lossless\barry guy\folio 2006\Barry Guy - Folio - 03 - Improvised commentary.flac
Extracted successfully
Conclusion: This track looks like CDDA with probability 99%
04 -===- H:\Песеньки\lossless\barry guy\folio 2006\Barry Guy - Folio - 04 - Folio Five I.flac
Extracted successfully
Conclusion: This track looks like CDDA with probability 100%
05 -===- H:\Песеньки\lossless\barry guy\folio 2006\Barry Guy - Folio - 05 - Improvised commentary.flac
Extracted successfully
Conclusion: This track looks like CDDA with probability 100%
06 -===- H:\Песеньки\lossless\barry guy\folio 2006\Barry Guy - Folio - 06 - Folio Five II.flac
Extracted successfully
Conclusion: This track looks like CDDA with probability 100%
07 -===- H:\Песеньки\lossless\barry guy\folio 2006\Barry Guy - Folio - 07 - Improvised commentary.flac
Extracted successfully
Conclusion: This track looks like CDDA with probability 100%
08 -===- H:\Песеньки\lossless\barry guy\folio 2006\Barry Guy - Folio - 08 - Folio Five III.flac
Extracted successfully
Conclusion: This track looks like CDDA with probability 100%
09 -===- H:\Песеньки\lossless\barry guy\folio 2006\Barry Guy - Folio - 09 - Improvised commentary.flac
Extracted successfully
Conclusion: This track looks like CDDA with probability 100%
10 -===- H:\Песеньки\lossless\barry guy\folio 2006\Barry Guy - Folio - 10 - Folio Five IV.flac
Extracted successfully
Conclusion: This track looks like CDDA with probability 100%
11 -===- H:\Песеньки\lossless\barry guy\folio 2006\Barry Guy - Folio - 11 - Improvised commentary.flac
Extracted successfully
Conclusion: This track looks like CDDA with probability 100%
12 -===- H:\Песеньки\lossless\barry guy\folio 2006\Barry Guy - Folio - 12 - Folio Five V.flac
Extracted successfully
Conclusion: This track looks like CDDA with probability 100%
13 -===- H:\Песеньки\lossless\barry guy\folio 2006\Barry Guy - Folio - 13 - Memory.flac
Extracted successfully
Conclusion: This track looks like CDDA with probability 100%
14 -===- H:\Песеньки\lossless\barry guy\folio 2006\Barry Guy - Folio - 14 - Ortiz II.flac
Extracted successfully
Conclusion: This track looks like CDDA with probability 99%
 
cue
REM DATE 2005
REM DISCID B10D8F0E
REM COMMENT "ExactAudioCopy v0.99pb4"
PERFORMER "Barry Guy"
TITLE "Folio"
FILE "01 Improvisation.wav" WAVE
TRACK 01 AUDIO
TITLE "Improvisation"
PERFORMER "Barry Guy"
FLAGS DCP
INDEX 01 00:00:00
FILE "02 Prelude - Ortiz I - Postlude.wav" WAVE
TRACK 02 AUDIO
TITLE "Prelude - Ortiz I - Postlude"
PERFORMER "Barry Guy"
FLAGS DCP
INDEX 01 00:00:00
FILE "03 Improvised commentary.wav" WAVE
TRACK 03 AUDIO
TITLE "Improvised commentary"
PERFORMER "Barry Guy"
FLAGS DCP
INDEX 01 00:00:00
FILE "04 Folio Five I.wav" WAVE
TRACK 04 AUDIO
TITLE "Folio Five I"
PERFORMER "Barry Guy"
FLAGS DCP
INDEX 01 00:00:00
FILE "05 Improvised commentary.wav" WAVE
TRACK 05 AUDIO
TITLE "Improvised commentary"
PERFORMER "Barry Guy"
FLAGS DCP
INDEX 01 00:00:00
FILE "06 Folio Five II.wav" WAVE
TRACK 06 AUDIO
TITLE "Folio Five II"
PERFORMER "Barry Guy"
FLAGS DCP
INDEX 01 00:00:00
FILE "07 Improvised commentary.wav" WAVE
TRACK 07 AUDIO
TITLE "Improvised commentary"
PERFORMER "Barry Guy"
FLAGS DCP
INDEX 01 00:00:00
FILE "08 Folio Five III.wav" WAVE
TRACK 08 AUDIO
TITLE "Folio Five III"
PERFORMER "Barry Guy"
FLAGS DCP
INDEX 01 00:00:00
FILE "09 Improvised commentary.wav" WAVE
TRACK 09 AUDIO
TITLE "Improvised commentary"
PERFORMER "Barry Guy"
FLAGS DCP
INDEX 01 00:00:00
FILE "10 Folio Five IV.wav" WAVE
TRACK 10 AUDIO
TITLE "Folio Five IV"
PERFORMER "Barry Guy"
FLAGS DCP
INDEX 01 00:00:00
FILE "11 Improvised commentary.wav" WAVE
TRACK 11 AUDIO
TITLE "Improvised commentary"
PERFORMER "Barry Guy"
FLAGS DCP
INDEX 01 00:00:00
FILE "12 Folio Five V.wav" WAVE
TRACK 12 AUDIO
TITLE "Folio Five V"
PERFORMER "Barry Guy"
FLAGS DCP
INDEX 01 00:00:00
FILE "13 Memory.wav" WAVE
TRACK 13 AUDIO
TITLE "Memory"
PERFORMER "Barry Guy"
FLAGS DCP
INDEX 01 00:00:00
FILE "14 Ortiz II.wav" WAVE
TRACK 14 AUDIO
TITLE "Ortiz II"
PERFORMER "Barry Guy"
FLAGS DCP
INDEX 01 00:00:00
По всем вопросам пишите личное сообщение пользователю M0p94ok.
19:44
180
Нет комментариев. Ваш будет первым!