Вы используете незарегистрированную версию компонента "Вкладки"!

Поиск

(Free Jazz) Peter Brotzmann & Hamid Drake Duo - The Dried Rat-Dog - 1995, FLAC (image+.cue), lossless

(Free Jazz) Peter Brotzmann & Hamid Drake Duo - The Dried Rat-Dog - 1995, FLAC (image+.cue), lossless
Треклист:
Peter Brotzmann & Hamid Drake Duo - The Dried Rat-Dog
Жанр: Free Jazz
Год выпуска диска: 1995
Производитель диска: USA (Okka)
Аудио кодек: FLAC
Тип рипа: image+.cue
Битрейт аудио: lossless
Продолжительность: 63.23
Трэклист:
1. The Dried Rat-Dog
2. It's An Angel On The Door
3. Open Into The Unknown
4. Trees Have Roots In The Earth
5. The Uninvited Entertainer
6. Dark Wings Carry Off The Sky
Доп. информация: Peter Brotzmann - tarogato, e-flat clarinet, alto & tenor saxophones
Hamid Drake - frame drum, tablas, drums
 
eac log
Exact Audio Copy V0.99 prebeta 5 from 4. May 2009
EAC extraction logfile from 12. March 2010, 18:41
Brщtzmann - Drake Duo / The Dried Rat-Dog
Used drive : TSSTcorpCDDVDW TS-L633C Adapter: 0 ID: 1
Read mode : Secure
Utilize accurate stream : Yes
Defeat audio cache : Yes
Make use of C2 pointers : No
Read offset correction : 6
Overread into Lead-In and Lead-Out : No
Fill up missing offset samples with silence : Yes
Delete leading and trailing silent blocks : No
Null samples used in CRC calculations : Yes
Used interface : Native Win32 interface for Win NT & 2000
Used output format : User Defined Encoder
Selected bitrate : 768 kBit/s
Quality : High
Add ID3 tag : No
Command line compressor : C:\Program Files (x86)\Exact Audio Copy\Flac\flac.exe
Additional command line options : -8 -V %s
TOC of the extracted CD
Track | Start | Length | Start sector | End sector
---------------------------------------------------------
1 | 0:00.32 | 15:53.53 | 32 | 71559
2 | 15:54.10 | 6:58.10 | 71560 | 102919
3 | 22:52.20 | 5:24.37 | 102920 | 127256
4 | 28:16.57 | 11:05.48 | 127257 | 177179
5 | 39:22.30 | 16:35.52 | 177180 | 251856
6 | 55:58.07 | 7:26.10 | 251857 | 285316
Range status and errors
Selected range
Filename C:\CDs\Peter Brotzmann & Hamid Drake - The Dried Rat-Dog\Brщtzmann - Drake Duo - The Dried Rat-Dog.wav
Copy aborted
End of status report
------------------------------------------------------------
Exact Audio Copy V0.99 prebeta 5 from 4. May 2009
EAC extraction logfile from 12. March 2010, 19:05
Brщtzmann - Drake Duo / The Dried Rat-Dog
Used drive : TSSTcorpCDDVDW TS-L633C Adapter: 0 ID: 1
Read mode : Secure
Utilize accurate stream : Yes
Defeat audio cache : Yes
Make use of C2 pointers : No
Read offset correction : 6
Overread into Lead-In and Lead-Out : No
Fill up missing offset samples with silence : Yes
Delete leading and trailing silent blocks : No
Null samples used in CRC calculations : Yes
Used interface : Native Win32 interface for Win NT & 2000
Used output format : User Defined Encoder
Selected bitrate : 768 kBit/s
Quality : High
Add ID3 tag : No
Command line compressor : C:\Program Files (x86)\Exact Audio Copy\Flac\flac.exe
Additional command line options : -8 -V %s
TOC of the extracted CD
Track | Start | Length | Start sector | End sector
---------------------------------------------------------
1 | 0:00.32 | 15:53.53 | 32 | 71559
2 | 15:54.10 | 6:58.10 | 71560 | 102919
3 | 22:52.20 | 5:24.37 | 102920 | 127256
4 | 28:16.57 | 11:05.48 | 127257 | 177179
5 | 39:22.30 | 16:35.52 | 177180 | 251856
6 | 55:58.07 | 7:26.10 | 251857 | 285316
Range status and errors
Selected range
Filename C:\CDs\Peter Brotzmann & Hamid Drake - The Dried Rat-Dog\Brщtzmann - Drake Duo - The Dried Rat-Dog.wav
Peak level 100.0 %
Range quality 100.0 %
Copy CRC 6B3CBC92
Copy OK
No errors occurred
AccurateRip summary
Track 1 accurately ripped (confidence 2) [17126CFF]
Track 2 accurately ripped (confidence 2) [FA3FA309]
Track 3 accurately ripped (confidence 2) [4D13DC18]
Track 4 accurately ripped (confidence 2) [5D0953C6]
Track 5 accurately ripped (confidence 2) [58435845]
Track 6 accurately ripped (confidence 2) [D6C37A29]
All tracks accurately ripped
End of status report
По всем вопросам пишите личное сообщение пользователю M0p94ok.
19:44
148
Нет комментариев. Ваш будет первым!