Вы используете незарегистрированную версию компонента "Вкладки"!

Поиск

(Modern Composition, Free Improvisation) Lucio Capece, Julia Eckhardt, Christian Kesten, Radu Malfatti, Toshimaru Nakamura,Taku Sugimoto - Wedding Ceremony - 2009, FLAC (tracks+.cue), lossless

(Modern Composition, Free Improvisation) Lucio Capece, Julia Eckhardt, Christian Kesten, Radu Malfatti, Toshimaru Nakamura,Taku Sugimoto - Wedding Ceremony - 2009, FLAC (tracks+.cue), lossless
Треклист:
Lucio Capece, Julia Eckhardt, Christian Kesten, Radu Malfatti, 中村としまる, 杉本拓 / Wedding Ceremony
Жанр: Modern Composition, Free Improvisation
Страна-производитель диска: Великобритания
Год издания диска: 2009
Издатель (лейбл): Cathnor
Номер по каталогу: Cath007
Страна: Германия, Бельгия, Австрия, Япония
Аудиокодек: FLAC (*.flac)
Тип рипа: tracks+.cue
Битрейт аудио: lossless
Продолжительность: 1:15:23
Источник (релизер): slsk
Наличие сканов в содержимом раздачи: нет
Треклист:
1 Zonder Titel (Schuif En Ruis) Christian Kesten 8:10
2 Improvised Piece 20:00
3 Quartet + 2 Radu Malfatti 27:20
4 Doremilogy 2.12 Taku Sugimoto 4:20
5 About "The Society Of Spectacle" Guy Debord 1967. Instructions – Lucio Capece 15:33
Recorded live on the 24th and 25th of May 2007 at Vooruit (Gent) and Q-02 Werkplaats (Brussels), Belgium.
 
Лог создания рипа
X Lossless Decoder version 20100209 (116.0)
XLD extraction logfile from 2010-02-11 16:31:00 -0500
Lucio Capece & Julia Eckhart & Christian Kesten & Radu Malfatti & Tohsimaru Nakamura & Taku Sugimoto / Wedding Ceremony
Used drive : MATSHITA DVD-R UJ-867 (revision HA13)
Use cdparanoia mode : YES (CDParanoia III 10.2 engine)
Disable audio cache : OK for the drive with cache less than 2750KB
Make use of C2 pointers : NO
Read offset correction : 102
Max retry count : 100
TOC of the extracted CD
Track | Start | Length | Start sector | End sector
---------------------------------------------------------
1 | 00:00:00 | 08:10:00 | 0 | 36749
2 | 08:10:00 | 20:00:00 | 36750 | 126749
3 | 28:10:00 | 27:20:00 | 126750 | 249749
4 | 55:30:00 | 04:20:01 | 249750 | 269250
5 | 59:50:01 | 15:33:00 | 269251 | 339225
Track 01
Filename : /Users/robg/Music/Rips/Lucio Capece & Julia Eckhart & Christian Kesten & Radu Malfatti & Tohsimaru Nakamura & Taku Sugimoto - Wedding Ceremony (2009) [FLAC] {Cathnor Cath007}/01 - Zonder TItel (Schuif En Ruis) (Christian Kesten 2007).flac
Pre-gap length : 00:02:00
CRC32 hash (test run) : 870F20A2
CRC32 hash : 870F20A2
CRC32 hash (skip zero) : F07E7305
AccurateRip signature : E04F7E0E
->Track not present in AccurateRip database.
Statistics
Read error : 0
Skipped (treated as error) : 0
Edge jitter error (maybe fixed) : 0
Atom jitter error (maybe fixed) : 0
Drift error (maybe fixed) : 0
Dropped bytes error (maybe fixed) : 0
Duplicated bytes error (maybe fixed) : 0
Inconsistency in error sectors : 0
Track 02
Filename : /Users/robg/Music/Rips/Lucio Capece & Julia Eckhart & Christian Kesten & Radu Malfatti & Tohsimaru Nakamura & Taku Sugimoto - Wedding Ceremony (2009) [FLAC] {Cathnor Cath007}/02 - Improvised Piece.flac
CRC32 hash (test run) : 79C90133
CRC32 hash : 79C90133
CRC32 hash (skip zero) : F1CB7620
AccurateRip signature : 13CB51C9
->Track not present in AccurateRip database.
Statistics
Read error : 0
Skipped (treated as error) : 0
Edge jitter error (maybe fixed) : 0
Atom jitter error (maybe fixed) : 0
Drift error (maybe fixed) : 0
Dropped bytes error (maybe fixed) : 0
Duplicated bytes error (maybe fixed) : 0
Inconsistency in error sectors : 0
Track 03
Filename : /Users/robg/Music/Rips/Lucio Capece & Julia Eckhart & Christian Kesten & Radu Malfatti & Tohsimaru Nakamura & Taku Sugimoto - Wedding Ceremony (2009) [FLAC] {Cathnor Cath007}/03 - Quartet + 2 (Radu Malfatti 2007).flac
CRC32 hash (test run) : 7F0C716A
CRC32 hash : 7F0C716A
CRC32 hash (skip zero) : A310812F
AccurateRip signature : 0AF603ED
->Track not present in AccurateRip database.
Statistics
Read error : 0
Skipped (treated as error) : 0
Edge jitter error (maybe fixed) : 0
Atom jitter error (maybe fixed) : 0
Drift error (maybe fixed) : 0
Dropped bytes error (maybe fixed) : 0
Duplicated bytes error (maybe fixed) : 0
Inconsistency in error sectors : 0
Track 04
Filename : /Users/robg/Music/Rips/Lucio Capece & Julia Eckhart & Christian Kesten & Radu Malfatti & Tohsimaru Nakamura & Taku Sugimoto - Wedding Ceremony (2009) [FLAC] {Cathnor Cath007}/04 - Doremilogy 2.12 (Taku Sugimoto 2007).flac
CRC32 hash (test run) : 05A8741E
CRC32 hash : 05A8741E
CRC32 hash (skip zero) : 6AF82A64
AccurateRip signature : 42930E39
->Track not present in AccurateRip database.
Statistics
Read error : 0
Skipped (treated as error) : 0
Edge jitter error (maybe fixed) : 0
Atom jitter error (maybe fixed) : 0
Drift error (maybe fixed) : 0
Dropped bytes error (maybe fixed) : 0
Duplicated bytes error (maybe fixed) : 0
Inconsistency in error sectors : 0
Track 05
Filename : /Users/robg/Music/Rips/Lucio Capece & Julia Eckhart & Christian Kesten & Radu Malfatti & Tohsimaru Nakamura & Taku Sugimoto - Wedding Ceremony (2009) [FLAC] {Cathnor Cath007}/05 - About The Society of Spectacle Guy Debord 1967 (Improvised Piece. Instructions by Lucio Capece 2007).flac
CRC32 hash (test run) : EA4C5712
CRC32 hash : EA4C5712
CRC32 hash (skip zero) : FC7E4C78
AccurateRip signature : 005D895B
->Track not present in AccurateRip database.
Statistics
Read error : 0
Skipped (treated as error) : 0
Edge jitter error (maybe fixed) : 0
Atom jitter error (maybe fixed) : 0
Drift error (maybe fixed) : 0
Dropped bytes error (maybe fixed) : 0
Duplicated bytes error (maybe fixed) : 0
Inconsistency in error sectors : 0
No errors occurred
End of status report
 
Содержание индексной карты (.CUE)
TITLE "Wedding Ceremony"
PERFORMER "Lucio Capece & Julia Eckhart & Christian Kesten & Radu Malfatti & Tohsimaru Nakamura & Taku Sugimoto"
REM DATE 2009
FILE "01 - Zonder TItel (Schuif En Ruis) (Christian Kesten 2007).wav" WAVE
TRACK 01 AUDIO
TITLE "Zonder TItel (Schuif En Ruis) (Christian Kesten 2007)"
INDEX 01 00:00:00
FILE "02 - Improvised Piece.wav" WAVE
TRACK 02 AUDIO
TITLE "Improvised Piece"
INDEX 01 00:00:00
FILE "03 - Quartet + 2 (Radu Malfatti 2007).wav" WAVE
TRACK 03 AUDIO
TITLE "Quartet + 2 (Radu Malfatti 2007)"
INDEX 01 00:00:00
FILE "04 - Doremilogy 2.12 (Taku Sugimoto 2007).wav" WAVE
TRACK 04 AUDIO
TITLE "Doremilogy 2.12 (Taku Sugimoto 2007)"
INDEX 01 00:00:00
FILE "05 - About The Society of Spectacle Guy Debord 1967 (Improvised Piece. Instructions by Lucio Capece 2007).wav" WAVE
TRACK 05 AUDIO
TITLE "About The Society of Spectacle Guy Debord 1967 (Improvised Piece. Instructions by Lucio Capece 2007)"
INDEX 01 00:00:00
 
Лог проверки качества
AUDIOCHECKER v2.0 beta (build 457) - by Dester - opdester@freemail.hu
~~~~~~~~~~~~~~~~~~~~~~~~~~~~~~~~~~
-=== DO NOT EDIT THIS FILE! ===-
Path: ...\lucio capece, julia eckhart, christian kesten, radu malfatti, tohsimaru nakamura, taku sugimoto - wedding ceremony (cathnor)(flac)
1 -=- 01 - zonder titel (christian kesten 2007).flac -=- CDDA (100%)
2 -=- 02 - improvised piece.flac -=- CDDA (99%)
3 -=- 03 - quartet + 2 (radu malfatti 2007).flac -=- CDDA (99%)
4 -=- 04 - doremilogy 2.12 (taku sugimoto 2007).flac -=- CDDA (100%)
5 -=- 05 - about the society of spectacle guy debord 1967.flac -=- CDDA (100%)
Summary 99,60% CDDA
255078484
 
Состав
Lucio Capece bass clarinet, saxophone
Julia Eckhardt viola
Christian Kesten voice
Radu Malfatti trombone
Toshimaru Nakamura no input mixing board
Taku Sugimoto electric guitar
Any questions -> support@pro-jazz.com. По всем вопросам пишите -> support@pro-jazz.com
20:52
162
Нет комментариев. Ваш будет первым!