Вы используете незарегистрированную версию компонента "Вкладки"!

Поиск

(Avant-Garde Jazz, Modern Creative) As If 3 - Klinkklaar - 2008, FLAC (tracks+.cue), lossless

(Avant-Garde Jazz, Modern Creative) As If 3 - Klinkklaar - 2008, FLAC (tracks+.cue), lossless
Треклист:
•As If 3 - Klinkklaar•
Жанр: Avant-Garde Jazz, Modern Creative
Страна-производитель диска: Holland
Год издания диска: 2008
Издатель (лейбл): Casco Records
Номер по каталогу: 1
Аудиокодек: FLAC (*.flac)
Тип рипа: tracks+.cue
Битрейт аудио: lossless
Продолжительность: 00:59:53
Источник (релизер): Рип с диска.
Наличие сканов в содержимом раздачи: да
Треклист:
01. Ball Shelly
02. Back & Forward
03. M.F.
04. Afternotes
05. Klinkklaar
06. Intuitionism
07. Horsecombing
08. Ce Qu'il Se Passe
09. Asifgnature
Personnel:
Frank Van Bommel - p
Raoul Van Der Weide - b
Wim Janssen - dr
 
Лог создания рипа
Exact Audio Copy V1.0 beta 3 from 29. August 2011
Отчёт EAC об извлечении, выполненном 6. января 2012, 16:53
As If 3 / Klinkklaar
Дисковод: TSSTcorpCDDVDW SH-S223C Adapter: 5 ID: 0
Режим чтения : Достоверность
Использование точного потока : Да
Отключение кэша аудио : Да
Использование указателей C2 : Нет
Коррекция смещения при чтении : 697
Способность читать области Lead-in и Lead-out : Нет
Заполнение пропущенных сэмплов тишиной : Да
Удаление блоков с тишиной в начале и конце : Нет
При вычислениях CRC использовались нулевые сэмплы : Да
Интерфейс : Установленный внешний ASPI-интерфейс
Обработка зазоров : Добавлено к предыдущему треку
Выходной формат : Пользовательский кодировщик
Выбранный битрейт : 128 kBit/s
Качество : Высокий
Добавление ID3-тега : Нет
Утилита сжатия : C:\Program Files\Exact Audio Copy\Flac\flac.exe
Дополнительные параметры : -V -8 -T "Genre=%genre%" -T "Artist=%artist%" -T "Title=%title%" -T "Album=%albumtitle%" -T "Date=%year%" -T "Tracknumber=%tracknr%" -T "Comment=%comment%" %source%
TOC извлечённого CD
Трек | Старт | Длительность | Начальный сектор | Конечный сектор
---------------------------------------------------------------------
1 | 0:00.00 | 3:09.41 | 0 | 14215
2 | 3:09.41 | 4:35.12 | 14216 | 34852
3 | 7:44.53 | 7:00.16 | 34853 | 66368
4 | 14:44.69 | 9:13.14 | 66369 | 107857
5 | 23:58.08 | 8:43.12 | 107858 | 147094
6 | 32:41.20 | 4:36.07 | 147095 | 167801
7 | 37:17.27 | 10:11.59 | 167802 | 213685
8 | 47:29.11 | 10:34.61 | 213686 | 261296
9 | 58:03.72 | 1:49.19 | 261297 | 269490
Трек 1
Имя файла C:\Шахматы\2008.As If 3 - Klinkklaar\01. Ball Shelly.wav
Длина предзазора 0:00:02.00
Пиковый уровень 99.9 %
Скорость извлечения 1.6 X
Качество трека 99.9 %
CRC теста 479066EB
CRC копии 479066EB
Трек не обнаружен в базе AccurateRip
Копирование... OK
Трек 2
Имя файла C:\Шахматы\2008.As If 3 - Klinkklaar\02. Back & Forward.wav
Длина предзазора 0:00:02.00
Пиковый уровень 93.7 %
Скорость извлечения 2.2 X
Качество трека 100.0 %
CRC теста 9FED6F2B
CRC копии 9FED6F2B
Трек не обнаружен в базе AccurateRip
Копирование... OK
Трек 3
Имя файла C:\Шахматы\2008.As If 3 - Klinkklaar\03. M.F..wav
Длина предзазора 0:00:02.00
Пиковый уровень 89.3 %
Скорость извлечения 2.6 X
Качество трека 100.0 %
CRC теста 5C9E5BD7
CRC копии 5C9E5BD7
Трек не обнаружен в базе AccurateRip
Копирование... OK
Трек 4
Имя файла C:\Шахматы\2008.As If 3 - Klinkklaar\04. Afternotes.wav
Длина предзазора 0:00:02.00
Пиковый уровень 89.3 %
Скорость извлечения 3.0 X
Качество трека 100.0 %
CRC теста A95B25B9
CRC копии A95B25B9
Трек не обнаружен в базе AccurateRip
Копирование... OK
Трек 5
Имя файла C:\Шахматы\2008.As If 3 - Klinkklaar\05. Klinkklaar.wav
Длина предзазора 0:00:02.00
Пиковый уровень 99.9 %
Скорость извлечения 3.4 X
Качество трека 100.0 %
CRC теста A4AA1809
CRC копии A4AA1809
Трек не обнаружен в базе AccurateRip
Копирование... OK
Трек 6
Имя файла C:\Шахматы\2008.As If 3 - Klinkklaar\06. Intuitionism.wav
Длина предзазора 0:00:02.00
Пиковый уровень 99.9 %
Скорость извлечения 3.4 X
Качество трека 100.0 %
CRC теста 455CBE49
CRC копии 455CBE49
Трек не обнаружен в базе AccurateRip
Копирование... OK
Трек 7
Имя файла C:\Шахматы\2008.As If 3 - Klinkklaar\07. Horsecombing.wav
Длина предзазора 0:00:02.00
Пиковый уровень 98.5 %
Скорость извлечения 3.9 X
Качество трека 100.0 %
CRC теста 5EA4F9E4
CRC копии 5EA4F9E4
Трек не обнаружен в базе AccurateRip
Копирование... OK
Трек 8
Имя файла C:\Шахматы\2008.As If 3 - Klinkklaar\08. Ce Qu'il Se Passe.wav
Длина предзазора 0:00:02.00
Пиковый уровень 93.7 %
Скорость извлечения 4.1 X
Качество трека 100.0 %
CRC теста 236AB8BE
CRC копии 236AB8BE
Трек не обнаружен в базе AccurateRip
Копирование... OK
Трек 9
Имя файла C:\Шахматы\2008.As If 3 - Klinkklaar\09. Asifgnature.wav
Длина предзазора 0:00:02.00
Пиковый уровень 98.5 %
Скорость извлечения 2.7 X
Качество трека 99.9 %
CRC теста 480B35F7
CRC копии 480B35F7
Трек не обнаружен в базе AccurateRip
Копирование... OK
Ни одного трека нет в базе AccurateRip
Ошибок не произошло
Конец отчёта
==== Контрольная сумма отчёта E21E5A7C0D567E6ACFE1EF5558827388BAD07470888116E954EB8620E9E43526 ====
 
Содержание индексной карты (.CUE)
REM GENRE Avantgarde
REM DATE 2008
REM DISCID 830E0909
REM COMMENT "ExactAudioCopy v1.0b3"
PERFORMER "As If 3"
TITLE "Klinkklaar"
FILE "01. Ball Shelly.wav" WAVE
TRACK 01 AUDIO
TITLE "Ball Shelly"
PERFORMER "As If 3"
INDEX 01 00:00:00
TRACK 02 AUDIO
TITLE "Back & Forward"
PERFORMER "As If 3"
INDEX 00 03:07:41
FILE "02. Back & Forward.wav" WAVE
INDEX 01 00:00:00
TRACK 03 AUDIO
TITLE "M.F."
PERFORMER "As If 3"
INDEX 00 04:33:12
FILE "03. M.F..wav" WAVE
INDEX 01 00:00:00
TRACK 04 AUDIO
TITLE "Afternotes"
PERFORMER "As If 3"
INDEX 00 06:58:16
FILE "04. Afternotes.wav" WAVE
INDEX 01 00:00:00
TRACK 05 AUDIO
TITLE "Klinkklaar"
PERFORMER "As If 3"
INDEX 00 09:11:14
FILE "05. Klinkklaar.wav" WAVE
INDEX 01 00:00:00
TRACK 06 AUDIO
TITLE "Intuitionism"
PERFORMER "As If 3"
INDEX 00 08:41:12
FILE "06. Intuitionism.wav" WAVE
INDEX 01 00:00:00
TRACK 07 AUDIO
TITLE "Horsecombing"
PERFORMER "As If 3"
INDEX 00 04:34:07
FILE "07. Horsecombing.wav" WAVE
INDEX 01 00:00:00
TRACK 08 AUDIO
TITLE "Ce Qu'il Se Passe"
PERFORMER "As If 3"
INDEX 00 10:09:59
FILE "08. Ce Qu'il Se Passe.wav" WAVE
INDEX 01 00:00:00
TRACK 09 AUDIO
TITLE "Asifgnature"
PERFORMER "As If 3"
INDEX 00 10:32:61
FILE "09. Asifgnature.wav" WAVE
INDEX 01 00:00:00
Any questions -> support@pro-jazz.com. По всем вопросам пишите -> support@pro-jazz.com
20:53
189
Нет комментариев. Ваш будет первым!