Вы используете незарегистрированную версию компонента "Вкладки"!

Поиск

(Modern Big Band, Progressive Jazz) Either/Orchestra - Radium - 1988, FLAC (tracks+.cue), lossless

Треклист:
Either/Orchestra / Radium
Жанр: Modern Big Band, Progressive Jazz
Страна-производитель диска: US
Год издания диска: 1988
Издатель (лейбл): Accurate Records
Номер по каталогу: AC-3232
Страна: US
Аудиокодек: FLAC (*.flac)
Тип рипа: tracks+.cue
Битрейт аудио: lossless
Продолжительность: 69:09
Источник (релизер): waffles.fm
Наличие сканов в содержимом раздачи: нет
Треклист:
1. Born In A Suitcase 6:42
2. Hard To Know 4:56
3. Moanin' (Introduction) 2:59
Written-By – Charlie Kohlhase
4. Moanin' 7:52
Written-By – Charles Mingus
5. Insomnia 12:20
6. Nutty / Ode To Billie Joe 7:31
Written-By – Bobbie Gentry, Thelonious Monk
7. Odwallah 10:52
Written-By – Roscoe Mitchell
8. Willow Weep For Me 15:43
Written-By – Ann Ronell
 
Лог создания рипа
Exact Audio Copy V1.0 beta 3 from 29. August 2011
EAC extraction logfile from 26. January 2012, 4:44
Either/Orchestra / Radium
Used drive : TSSTcorpCDDVDW SH-S203B Adapter: 3 ID: 2
Read mode : Secure
Utilize accurate stream : Yes
Defeat audio cache : Yes
Make use of C2 pointers : No
Read offset correction : 6
Overread into Lead-In and Lead-Out : No
Fill up missing offset samples with silence : Yes
Delete leading and trailing silent blocks : No
Null samples used in CRC calculations : Yes
Used interface : Native Win32 interface for Win NT & 2000
Gap handling : Appended to previous track
Used output format : User Defined Encoder
Selected bitrate : 896 kBit/s
Quality : High
Add ID3 tag : No
Command line compressor : C:\Program Files\Exact Audio Copy\Flac\flac.exe
Additional command line options : -8 -V -T "ARTIST=%artist%" -T "TITLE=%title%" -T "ALBUM=%albumtitle%" -T "DATE=%year%" -T "TRACKNUMBER=%tracknr%" -T "GENRE=%genre%" -T "PERFORMER=%albuminterpret%" -T "COMPOSER=%composer%" %haslyrics%--tag-from-file=LYRICS="%lyricsfile%"%haslyrics% -T "ALBUMARTIST=%albumartist%" -T "DISCNUMBER=%cdnumber%" -T "TOTALDISCS=%totalcds%" -T "TOTALTRACKS=%numtracks%" -T "COMMENT=%comment%" %source% -o %dest%
TOC of the extracted CD
Track | Start | Length | Start sector | End sector
---------------------------------------------------------
1 | 0:00.00 | 6:44.28 | 0 | 30327
2 | 6:44.28 | 5:00.32 | 30328 | 52859
3 | 11:44.60 | 2:59.18 | 52860 | 66302
4 | 14:44.03 | 7:55.70 | 66303 | 101997
5 | 22:39.73 | 12:22.40 | 101998 | 157687
6 | 35:02.38 | 7:33.20 | 157688 | 191682
7 | 42:35.58 | 10:53.05 | 191683 | 240662
8 | 53:28.63 | 15:40.70 | 240663 | 311232
Track 1
Filename F:\EAC Rips\Either,Orchestra - Radium [FLAC]\01 - Born in a Suitcase.wav
Pre-gap length 0:00:02.00
Peak level 100.0 %
Extraction speed 4.7 X
Track quality 99.9 %
Copy CRC 149A3372
Accurately ripped (confidence 1) [A6A80074] (AR v1)
Copy OK
Track 2
Filename F:\EAC Rips\Either,Orchestra - Radium [FLAC]\02 - Hard to Know.wav
Pre-gap length 0:00:03.20
Peak level 89.3 %
Extraction speed 4.9 X
Track quality 99.9 %
Copy CRC 21C8FE71
Accurately ripped (confidence 1) [7E79BF4A] (AR v1)
Copy OK
Track 3
Filename F:\EAC Rips\Either,Orchestra - Radium [FLAC]\03 - Moanin' - Introduction.wav
Pre-gap length 0:00:04.22
Peak level 94.3 %
Extraction speed 5.6 X
Track quality 100.0 %
Copy CRC 1FBC318E
Accurately ripped (confidence 1) [0022CAD2] (AR v1)
Copy OK
Track 4
Filename F:\EAC Rips\Either,Orchestra - Radium [FLAC]\04 - Moanin'.wav
Peak level 91.8 %
Extraction speed 7.0 X
Track quality 100.0 %
Copy CRC 8FB99525
Accurately ripped (confidence 1) [485FEB0A] (AR v1)
Copy OK
Track 5
Filename F:\EAC Rips\Either,Orchestra - Radium [FLAC]\05 - Insomnia.wav
Pre-gap length 0:00:03.53
Peak level 92.4 %
Extraction speed 8.1 X
Track quality 100.0 %
Copy CRC 8F58AC3A
Accurately ripped (confidence 1) [1578F179] (AR v1)
Copy OK
Track 6
Filename F:\EAC Rips\Either,Orchestra - Radium [FLAC]\06 - Nutty,Ode to Billy Joe.wav
Pre-gap length 0:00:01.23
Peak level 100.0 %
Extraction speed 8.5 X
Track quality 100.0 %
Copy CRC D75B879C
Accurately ripped (confidence 1) [3D880342] (AR v1)
Copy OK
Track 7
Filename F:\EAC Rips\Either,Orchestra - Radium [FLAC]\07 - Odwallah.wav
Peak level 100.0 %
Extraction speed 9.3 X
Track quality 100.0 %
Copy CRC 138B08C0
Accurately ripped (confidence 1) [DA656C97] (AR v1)
Copy OK
Track 8
Filename F:\EAC Rips\Either,Orchestra - Radium [FLAC]\08 - Willow Weep for Me.wav
Pre-gap length 0:00:00.53
Peak level 100.0 %
Extraction speed 10.3 X
Track quality 100.0 %
Copy CRC D498EC30
Cannot be verified as accurate (confidence 1) [650DC5F3], AccurateRip returned [E05202F8] (AR v2)
Copy OK
7 track(s) accurately ripped
1 track(s) could not be verified as accurate
Some tracks could not be verified as accurate
No errors occurred
End of status report
 
Содержание индексной карты (.CUE)
REM DATE 1988
REM DISCID 5A103508
REM COMMENT "ExactAudioCopy v1.0b3"
PERFORMER "Either/Orchestra"
TITLE "Radium"
FILE "01 - Born in a Suitcase.wav" WAVE
TRACK 01 AUDIO
TITLE "Born in a Suitcase"
PERFORMER "Either/Orchestra"
INDEX 01 00:00:00
TRACK 02 AUDIO
TITLE "Hard to Know"
PERFORMER "Either/Orchestra"
INDEX 00 06:41:08
FILE "02 - Hard to Know.wav" WAVE
INDEX 01 00:00:00
TRACK 03 AUDIO
TITLE "Moanin' - Introduction"
PERFORMER "Either/Orchestra"
INDEX 00 04:56:10
FILE "03 - Moanin' - Introduction.wav" WAVE
INDEX 01 00:00:00
FILE "04 - Moanin'.wav" WAVE
TRACK 04 AUDIO
TITLE "Moanin'"
PERFORMER "Either/Orchestra"
INDEX 01 00:00:00
TRACK 05 AUDIO
TITLE "Insomnia"
PERFORMER "Either/Orchestra"
INDEX 00 07:52:17
FILE "05 - Insomnia.wav" WAVE
INDEX 01 00:00:00
TRACK 06 AUDIO
TITLE "Nutty/Ode to Billy Joe"
PERFORMER "Either/Orchestra"
INDEX 00 12:21:17
FILE "06 - Nutty,Ode to Billy Joe.wav" WAVE
INDEX 01 00:00:00
FILE "07 - Odwallah.wav" WAVE
TRACK 07 AUDIO
TITLE "Odwallah"
PERFORMER "Either/Orchestra"
INDEX 01 00:00:00
TRACK 08 AUDIO
TITLE "Willow Weep for Me"
PERFORMER "Either/Orchestra"
INDEX 00 10:52:27
FILE "08 - Willow Weep for Me.wav" WAVE
INDEX 01 00:00:00
 
Лог проверки качества
d:\>d:\aucdtect -d/-m0 d:\zzz\*.wav
auCDtect: CD records authenticity detector, version 0.8.2
Copyright (c) 2004 Oleg Berngardt. All rights reserved.
Copyright (c) 2004 Alexander Djourik. All rights reserved.
------------------------------------------------------------
Processing file: [01. Born in a Suitcase.wav]
------------------------------------------------------------
This track looks like CDDA with probability 100%
------------------------------------------------------------
Processing file: [02. Hard to Know.wav]
------------------------------------------------------------
This track looks like CDDA with probability 100%
------------------------------------------------------------
Processing file: [03. Moanin' - Introduction.wav]
------------------------------------------------------------
This track looks like CDDA with probability 100%
------------------------------------------------------------
Processing file: [04. Moanin'.wav]
------------------------------------------------------------
This track looks like CDDA with probability 100%
------------------------------------------------------------
Processing file: [05. Insomnia.wav]
------------------------------------------------------------
This track looks like CDDA with probability 100%
------------------------------------------------------------
Processing file: [06. Nutty-Ode to Billy Joe.wav]
------------------------------------------------------------
This track looks like CDDA with probability 100%
------------------------------------------------------------
Processing file: [07. Odwallah.wav]
------------------------------------------------------------
This track looks like CDDA with probability 100%
------------------------------------------------------------
Processing file: [08. Willow Weep for Me.wav]
------------------------------------------------------------
This track looks like CDDA with probability 100%
------------------------------------------------------------
Final Conclusion:
------------------------------------------------------------
These tracks looks like CDDA with probability 100%
Доп. информация:
 
AMG Review
Radium, the second release from this Boston-based mid-size ensemble, could serve as a virtual template for its albums in years to come. Two originals by leader Russ Gershon show his leanings toward an Ellingtonian sound combined with lessons learned growing up listening to the post-Ornette avant-garde. His "Hard to Know" is a lovely, bittersweet song that etches itself firmly in one's mind, evincing Gershon's knack for penning infectious melodies. But one of the chief trademarks of this band is the inspired cover version, and this album is no exception. Not only do they perform compositions as disparate as "Willow Weep for Me" (which gets taken on a long, wild ride) and "Odwalla," the great, beautiful dirge made famous by the Art Ensemble of Chicago (here clearly adapted from its performance on Bap-Tizum), but they even have the chutzpah to concoct the unholy merger of Monk's "Nutty" and "Ode to Billy Joe"! These guys certainly have little shame and you should be thankful for that. Either/Orchestra also has a tradition of showcasing fine soloists and herein one can appreciate the instrumental prowess of, among others, trumpeter Tom Halter and trombonist Curtis Hasselbring. Perhaps not up to the stellar level of their best releases such as The Half-Life of Desire, but a great deal of fun nonetheless.
 
Состав
Bass – Mike Rivard
Drums – Jerome Deupree
Electric Guitar – John Dirac
Piano, Keyboards – Kenny Freundlich
Producer, Engineer – George Hicks
Producer, Saxophone [Tenor], Saxophone [Soprano] – Russ Gershon
Saxophone [Alto] – Robb Rawlings
Saxophone [Baritone] – Charlie Kohlhase
Trombone – Curtis Hasselbring, Russell Jewell
Trumpet, Flugelhorn – John Carlson, Tom Halter
Written-By – Russ Gershon (tracks: 1, 2, 5)
Any questions -> support@pro-jazz.com. По всем вопросам пишите -> support@pro-jazz.com
21:29
233
Нет комментариев. Ваш будет первым!