Вы используете незарегистрированную версию компонента "Вкладки"!

Поиск

(Avant-Garde Jazz, Experimental Big Band) Either/Orchestra - The Calculus Of Pleasure - 1992, FLAC (tracks+.cue), lossless

Треклист:
Either/Orchestra / The Calculus Of Pleasure
Жанр: Avant-Garde Jazz, Experimental Big Band
Страна-производитель диска: US
Год издания диска: 1992
Издатель (лейбл): Accurate Records
Номер по каталогу: AC-3252
Страна: US
Аудиокодек: FLAC (*.flac)
Тип рипа: tracks+.cue
Битрейт аудио: lossless
Продолжительность: 74:35
Источник (релизер): waffles.fm
Наличие сканов в содержимом раздачи: нет
Треклист:
1 Whisper Not 9:13
2 Bennie Moten's Weird Nightmare 8:13
3 Consenting Adults 9:45
4 Ecaroh 6:55
5 Unnatural Pastime 4:49
6 The Hard Blues 13:11
7 Miles Away 14:54
8 Grey 7:32
 
Лог создания рипа
Exact Audio Copy V1.0 beta 3 from 29. August 2011
EAC extraction logfile from 26. January 2012, 11:22
Either/Orchestra / The Calculus of Pleasure
Used drive : TSSTcorpCDDVDW SH-S203B Adapter: 3 ID: 2
Read mode : Secure
Utilize accurate stream : Yes
Defeat audio cache : Yes
Make use of C2 pointers : No
Read offset correction : 6
Overread into Lead-In and Lead-Out : No
Fill up missing offset samples with silence : Yes
Delete leading and trailing silent blocks : No
Null samples used in CRC calculations : Yes
Used interface : Native Win32 interface for Win NT & 2000
Gap handling : Appended to previous track
Used output format : User Defined Encoder
Selected bitrate : 896 kBit/s
Quality : High
Add ID3 tag : No
Command line compressor : C:\Program Files\Exact Audio Copy\Flac\flac.exe
Additional command line options : -8 -V -T "ARTIST=%artist%" -T "TITLE=%title%" -T "ALBUM=%albumtitle%" -T "DATE=%year%" -T "TRACKNUMBER=%tracknr%" -T "GENRE=%genre%" -T "PERFORMER=%albuminterpret%" -T "COMPOSER=%composer%" %haslyrics%--tag-from-file=LYRICS="%lyricsfile%"%haslyrics% -T "ALBUMARTIST=%albumartist%" -T "DISCNUMBER=%cdnumber%" -T "TOTALDISCS=%totalcds%" -T "TOTALTRACKS=%numtracks%" -T "COMMENT=%comment%" %source% -o %dest%
TOC of the extracted CD
Track | Start | Length | Start sector | End sector
---------------------------------------------------------
1 | 0:00.00 | 9:13.00 | 0 | 41474
2 | 9:13.00 | 8:13.00 | 41475 | 78449
3 | 17:26.00 | 9:45.38 | 78450 | 122362
4 | 27:11.38 | 6:55.37 | 122363 | 153524
5 | 34:07.00 | 4:49.38 | 153525 | 175237
6 | 38:56.38 | 13:11.37 | 175238 | 234599
7 | 52:08.00 | 14:55.00 | 234600 | 301724
8 | 67:03.00 | 7:32.10 | 301725 | 335634
Track 1
Filename F:\EAC Rips\Either,Orchestra - The Calculus of Pleasure [FLAC]\01 - Whisper Not.wav
Pre-gap length 0:00:02.00
Peak level 82.7 %
Extraction speed 5.6 X
Track quality 100.0 %
Copy CRC 712A7256
Accurately ripped (confidence 5) [0D260BF3] (AR v1)
Copy OK
Track 2
Filename F:\EAC Rips\Either,Orchestra - The Calculus of Pleasure [FLAC]\02 - Bennie Moten's Weird Nightmare.wav
Pre-gap length 0:00:01.55
Peak level 96.2 %
Extraction speed 5.8 X
Track quality 99.9 %
Copy CRC 6D10EEDC
Accurately ripped (confidence 5) [6D251C51] (AR v1)
Copy OK
Track 3
Filename F:\EAC Rips\Either,Orchestra - The Calculus of Pleasure [FLAC]\03 - Consenting Adults.wav
Pre-gap length 0:00:01.52
Peak level 100.0 %
Extraction speed 7.3 X
Track quality 100.0 %
Copy CRC 4548A993
Accurately ripped (confidence 5) [14A39501] (AR v1)
Copy OK
Track 4
Filename F:\EAC Rips\Either,Orchestra - The Calculus of Pleasure [FLAC]\04 - Ecaroh.wav
Pre-gap length 0:00:01.65
Peak level 85.3 %
Extraction speed 7.9 X
Track quality 100.0 %
Copy CRC 35F0FE87
Accurately ripped (confidence 5) [D16DBF39] (AR v1)
Copy OK
Track 5
Filename F:\EAC Rips\Either,Orchestra - The Calculus of Pleasure [FLAC]\05 - Unnatural Pastime.wav
Pre-gap length 0:00:01.07
Peak level 100.0 %
Extraction speed 6.8 X
Track quality 99.9 %
Copy CRC 7296E873
Accurately ripped (confidence 5) [74A94468] (AR v1)
Copy OK
Track 6
Filename F:\EAC Rips\Either,Orchestra - The Calculus of Pleasure [FLAC]\06 - The Hard Blues.wav
Pre-gap length 0:00:01.20
Peak level 91.3 %
Extraction speed 8.6 X
Track quality 99.9 %
Copy CRC 0F126E0F
Accurately ripped (confidence 5) [8232679A] (AR v1)
Copy OK
Track 7
Filename F:\EAC Rips\Either,Orchestra - The Calculus of Pleasure [FLAC]\07 - Miles Away.wav
Pre-gap length 0:00:01.50
Peak level 83.6 %
Extraction speed 10.2 X
Track quality 100.0 %
Copy CRC A17ABA47
Accurately ripped (confidence 5) [FE48C4DB] (AR v1)
Copy OK
Track 8
Filename F:\EAC Rips\Either,Orchestra - The Calculus of Pleasure [FLAC]\08 - Grey.wav
Pre-gap length 0:00:01.62
Peak level 65.5 %
Extraction speed 10.2 X
Track quality 100.0 %
Copy CRC 8C7A7DD5
Accurately ripped (confidence 3) [249E4DA0] (AR v1)
Copy OK
All tracks accurately ripped
No errors occurred
End of status report
 
Содержание индексной карты (.CUE)
REM DISCID 5C117B08
REM COMMENT "ExactAudioCopy v1.0b3"
PERFORMER "Either/Orchestra"
TITLE "The Calculus of Pleasure"
FILE "01 - Whisper Not.wav" WAVE
TRACK 01 AUDIO
TITLE "Whisper Not"
PERFORMER "Either/Orchestra"
INDEX 01 00:00:00
TRACK 02 AUDIO
TITLE "Bennie Moten's Weird Nightmare"
PERFORMER "Either/Orchestra"
INDEX 00 09:11:20
FILE "02 - Bennie Moten's Weird Nightmare.wav" WAVE
INDEX 01 00:00:00
TRACK 03 AUDIO
TITLE "Consenting Adults"
PERFORMER "Either/Orchestra"
INDEX 00 08:11:23
FILE "03 - Consenting Adults.wav" WAVE
INDEX 01 00:00:00
TRACK 04 AUDIO
TITLE "Ecaroh"
PERFORMER "Either/Orchestra"
INDEX 00 09:43:48
FILE "04 - Ecaroh.wav" WAVE
INDEX 01 00:00:00
TRACK 05 AUDIO
TITLE "Unnatural Pastime"
PERFORMER "Either/Orchestra"
INDEX 00 06:54:30
FILE "05 - Unnatural Pastime.wav" WAVE
INDEX 01 00:00:00
TRACK 06 AUDIO
TITLE "The Hard Blues"
PERFORMER "Either/Orchestra"
INDEX 00 04:48:18
FILE "06 - The Hard Blues.wav" WAVE
INDEX 01 00:00:00
TRACK 07 AUDIO
TITLE "Miles Away"
PERFORMER "Either/Orchestra"
INDEX 00 13:09:62
FILE "07 - Miles Away.wav" WAVE
INDEX 01 00:00:00
TRACK 08 AUDIO
TITLE "Grey"
PERFORMER "Either/Orchestra"
INDEX 00 14:53:13
FILE "08 - Grey.wav" WAVE
INDEX 01 00:00:00
 
Лог проверки качества
d:\>d:\aucdtect -d/-m0 d:\zzz\*.wav
auCDtect: CD records authenticity detector, version 0.8.2
Copyright (c) 2004 Oleg Berngardt. All rights reserved.
Copyright (c) 2004 Alexander Djourik. All rights reserved.
------------------------------------------------------------
Processing file: [01. Whisper Not.wav]
------------------------------------------------------------
This track looks like CDDA with probability 100%
------------------------------------------------------------
Processing file: [02. Bennie Moten's Weird Nightmare.wav]
------------------------------------------------------------
This track looks like CDDA with probability 100%
------------------------------------------------------------
Processing file: [03. Consenting Adults.wav]
------------------------------------------------------------
This track looks like CDDA with probability 100%
------------------------------------------------------------
Processing file: [04. Ecaroh.wav]
------------------------------------------------------------
This track looks like CDDA with probability 100%
------------------------------------------------------------
Processing file: [05. Unnatural Pastime.wav]
------------------------------------------------------------
This track looks like CDDA with probability 100%
------------------------------------------------------------
Processing file: [06. The Hard Blues.wav]
------------------------------------------------------------
This track looks like CDDA with probability 100%
------------------------------------------------------------
Processing file: [07. Miles Away.wav]
------------------------------------------------------------
This track looks like CDDA with probability 100%
------------------------------------------------------------
Processing file: [08. Grey.wav]
------------------------------------------------------------
This track looks like CDDA with probability 99%
------------------------------------------------------------
Final Conclusion:
------------------------------------------------------------
These tracks looks like CDDA with probability 100%
Доп. информация:
 
AMG Review
Following their superb, decidedly weird 1989 release, The Half-Life of Desire, and with one's appetite whetted by the intriguing Caravaggio details used in the packaging, The Calculus of Pleasure came as something of a letdown. It's as though the mainstream qualities which were always present but offset by an avant-garde sensibility and some inspired wackiness suddenly rose to the fore and drowned out everything else. This might be all well and good, and to be sure, the ensemble goes through their paces quite ably, but the listener who thrilled to their rollicking covers of everyone from Bobbie Gentry to Robert Fripp may have been expecting a more progressive step rather than the regression to music that seemed so safe and even-tempered. The exception is perhaps their version of Julius Hemphill's classic "The Hard Blues," where the instrumentalists do indeed get a bit down and dirty. Even here though, little enough new is done with the material that one half-wonders why, aside from admiring the original, they bothered. Gershon's "Miles Away" is a funky tribute to post-Bitches Brew Davis, and the album closes with a charming lullaby by bassist Nieske, but the sense of drive and purpose achieved in earlier efforts seems to have largely evaporated. An enjoyable enough recording but not an essential one and, given the band's prior promise, a slightly disappointing one.
 
Состав
Bass – Bob Nieske
Drums – Matt Wilson
Engineer – Jim Siegel (tracks: 1, 3 to 5, 8), Steve Falke (tracks: 2, 6, 7)
Mastered By – Toby Mountain
Mixed By – Jim Siegel (tracks: 1, 3 to 5, 8), Paul Q. Kolderie (tracks: 2, 6, 7)
Piano, Organ – John Medeski
Saxophone [Alto], Clarinet [Bass] – Douglas Yates
Saxophone [Baritone], Saxophone [Alto] – Charlie Kohlhase
Saxophone [Tenor], Saxophone [Soprano], Producer, Mixed By – Russ Gershon
Trombone – Curtis Hasselbring
Trombone, Cowbell, Maracas – Russell Jewell
Trumpet, Flugelhorn – John Carlson, Tom Halter
Any questions -> support@pro-jazz.com. По всем вопросам пишите -> support@pro-jazz.com
21:30
230
Нет комментариев. Ваш будет первым!