Поиск

(Mainstream Jazz) Joris Roelofs feat. Ari Hoenig, Aaron Goldberg, Matt Penman - Introducing Joris Roelofs - 2008, APE (image+.cue), lossless

Треклист:
Joris Roelofs feat. Ari Hoenig, Aaron Goldberg, Matt Penman - Introducing Joris Roelofs
Жанр: Mainstream Jazz
Год издания диска: 2008
Издатель (лейбл): Material Records
Номер по каталогу: MRE 023-2
Страна: Aix-en-Provence (France), raised in Amsterdam (Netherlands)
Аудиокодек: APE (*.ape)
Тип рипа: image+.cue
Битрейт аудио: lossless
Продолжительность: 00:55:53
Источник (релизер): redlaad
Наличие сканов в содержимом раздачи: да
01. I fall in love too easily [07:09]
02. Dooie Hoek [05:23]
03. Sweet & Lovely [08:56]
04. 3/4 Space [04:35]
05. Background Music [04:16]
06. The Rules [06:50]
07. Four Winds [03:27]
08. Francisca [06:16]
09. Beter! [05:36]
10. Skylark [03:21]
 
Лог создания рипа
EAC extraction logfile from 17. January 2009, 12:48 for CD
Joris Roelofs / Introducing Joris Roelofs
Used drive  : ATAPI   DVD W  DH16W1P   Adapter: 2  ID: 0
Read mode   : Secure with NO C2, accurate stream, disable cache
Read offset correction : 6
Overread into Lead-In and Lead-Out : No
Used output format : Internal WAV Routines
                     44.100 Hz; 16 Bit; Stereo
Other options      :
    Fill up missing offset samples with silence : Yes
    Delete leading and trailing silent blocks : No
    Native Win32 interface for Win NT & 2000
Range status and errors
Selected range
     Filename C:\Data\Joris Roelofs - Introducing\Joris Roelofs - Introducing Joris Roelofs.wav
     Peak level 99.9 %
     Range quality 100.0 %
     CRC CDB762B7
     Copy OK
No errors occured
End of status report
 
 
Содержание индексной карты (.CUE)
REM GENRE Jazz
REM DATE 2008
REM DISCID 7B0D190A
REM COMMENT "ExactAudioCopy v0.95b4"
PERFORMER "Joris Roelofs"
TITLE "Introducing Joris Roelofs"
FILE "Joris Roelofs - Introducing Joris Roelofs.ape" WAVE
  TRACK 01 AUDIO
    TITLE "I fall in love too easily"
    PERFORMER "Joris Roelofs"
    INDEX 01 00:00:00
  TRACK 02 AUDIO
    TITLE "Dooie Hoek"
    PERFORMER "Joris Roelofs"
    INDEX 00 07:07:14
    INDEX 01 07:09:14
  TRACK 03 AUDIO
    TITLE "Sweet & Lovely"
    PERFORMER "Joris Roelofs"
    INDEX 00 12:30:67
    INDEX 01 12:32:67
  TRACK 04 AUDIO
    TITLE "3/4 Space"
    PERFORMER "Joris Roelofs"
    INDEX 00 21:27:00
    INDEX 01 21:29:00
  TRACK 05 AUDIO
    TITLE "Background Music"
    PERFORMER "Joris Roelofs"
    INDEX 00 26:02:74
    INDEX 01 26:04:74
  TRACK 06 AUDIO
    TITLE "The Rules"
    PERFORMER "Joris Roelofs"
    INDEX 00 30:19:11
    INDEX 01 30:21:11
  TRACK 07 AUDIO
    TITLE "Four Winds"
    PERFORMER "Joris Roelofs"
    INDEX 00 37:09:48
    INDEX 01 37:11:48
  TRACK 08 AUDIO
    TITLE "Francisca"
    PERFORMER "Joris Roelofs"
    INDEX 00 40:37:12
    INDEX 01 40:39:12
  TRACK 09 AUDIO
    TITLE "Beter!"
    PERFORMER "Joris Roelofs"
    INDEX 00 46:53:56
    INDEX 01 46:55:56
  TRACK 10 AUDIO
    TITLE "Skylark"
    PERFORMER "Joris Roelofs"
    INDEX 00 52:30:38
    INDEX 01 52:32:38
 
 
100 Greatest Jazz Albums

This one of the best jazz albums of 2008 and deserves a much wider audience. Well worth checking out in 2009.

100 Greatest Jazz Albums
 
 
Состав
Joris Roelofs - alto saxophone & clarinet
Ari Hoenig - drums
Aaron Goldberg - piano
Matt Penman - bass
По всем вопросам пишите личное сообщение пользователю M0p94ok.
11:17
405
Нет комментариев. Ваш будет первым!