Поиск

(Big Band) Mel Lewis And The Jazz Orchestra — Naturally! — 1979, FLAC (image+.cue), lossless

(Big Band) Mel Lewis And The Jazz Orchestra — Naturally! — 1979, FLAC (image+.cue), lossless
Треклист:
 
Mel Lewis And The Jazz Orchestra — Naturally!
Жанр: Big Band
Год издания диска: 1979
Издатель (лейбл): TELARC
Номер по каталогу: CD-83301
Аудиокодек: FLAC (*.flac)
Тип рипа: image+.cue
Битрейт аудио: lossless
Продолжительность: 46:27
Риппер: PCWhizzkid
Наличие сканов в содержимом раздачи: да
Треклист:
01. Cherry Juice (6:14)
02. Two As One (4:49)
03. My Centennial (11:55)
04. 61st And Rich'id (8:34)
05. Easy Living (8:03)
06. Que Pasa Bossa (6:52)
 
 
 
 
 
Лог создания рипа
Exact Audio Copy V1.0 beta 1 from 15. November 2010
EAC extraction logfile from 31. July 2011, 14:19
Mel Lewis and The Jazz Orchestra / Naturally!
Used drive  : HL-DT-STDVDRAM GH22NS40   Adapter: 4  ID: 0
Read mode               : Secure
Utilize accurate stream : Yes
Defeat audio cache      : Yes
Make use of C2 pointers : No
Read offset correction                      : 667
Overread into Lead-In and Lead-Out          : No
Fill up missing offset samples with silence : Yes
Delete leading and trailing silent blocks   : No
Null samples used in CRC calculations       : Yes
Used interface                              : Native Win32 interface for Win NT & 2000
Used output format              : User Defined Encoder
Selected bitrate                : 1024 kBit/s
Quality                         : High
Add ID3 tag                     : No
Command line compressor         : C:\Program Files (x86)\Exact Audio Copy\FLAC\FLAC.EXE
Additional command line options : -6 -V -T "ARTIST=%a" -T "TITLE=%t" -T "ALBUM=%g" -T "DATE=%y" -T "TRACKNUMBER=%n" -T "GENRE=%m" -T "COMMENT=%e" %j--picture="%i"%j %s -o %d
TOC of the extracted CD
     Track |   Start  |  Length  | Start sector | End sector
    ---------------------------------------------------------
        1  |  0:00.00 |  6:14.00 |         0    |    28049
        2  |  6:14.00 |  4:49.07 |     28050    |    49731
        3  | 11:03.07 | 11:55.35 |     49732    |   103391
        4  | 22:58.42 |  8:33.65 |    103392    |   141931
        5  | 31:32.32 |  8:02.43 |    141932    |   178124
        6  | 39:35.00 |  6:52.00 |    178125    |   209024
Range status and errors
Selected range
     Filename H:\Mel Lewis and The Jazz Orchestra - Naturally!\Mel Lewis and The Jazz Orchestra - Naturally!.wav
     Peak level 99.5 %
     Extraction speed 0.2 X
     Range quality 100.0 %
     Test CRC C6EF9D83
     Copy CRC C6EF9D83
     Copy OK
No errors occurred
AccurateRip summary
Track  1  cannot be verified as accurate (confidence 5)  [E355BDBF], AccurateRip returned [5E8BEFF6]
Track  2  cannot be verified as accurate (confidence 5)  [89B2E20C], AccurateRip returned [86762ACC]
Track  3  cannot be verified as accurate (confidence 5)  [43F71464], AccurateRip returned [2278A83A]
Track  4  cannot be verified as accurate (confidence 5)  [C9374630], AccurateRip returned [554B63B8]
Track  5  cannot be verified as accurate (confidence 5)  [7DB1D562], AccurateRip returned [F6E29CEE]
Track  6  cannot be verified as accurate (confidence 5)  [B21C0BB2], AccurateRip returned [53B0F7B4]
No tracks could be verified as accurate
You may have a different pressing from the one(s) in the database
End of status report
==== Log checksum AC69B974EF44EB2795E2C76427DA626EF50F3A5D35742FECE6D0D8B9C8286E2E ====
 
 
Содержание индексной карты (.CUE)
REM GENRE Jazz
REM DATE 1979
REM DISCID 580AE306
REM COMMENT "ExactAudioCopy v1.0b1"
PERFORMER "Mel Lewis And The Jazz Orchestra"
TITLE "Naturally!"
FILE "Mel Lewis & The Jazz Orchestra - Naturally!.flac" WAVE
  TRACK 01 AUDIO
    TITLE "Cherry Juice"
    PERFORMER "Mel Lewis And The Jazz Orchestra"
    INDEX 01 00:00:00
  TRACK 02 AUDIO
    TITLE "Two As One"
    PERFORMER "Mel Lewis And The Jazz Orchestra"
    INDEX 00 06:11:00
    INDEX 01 06:14:00
  TRACK 03 AUDIO
    TITLE "My Centennial"
    PERFORMER "Mel Lewis And The Jazz Orchestra"
    INDEX 00 10:56:62
    INDEX 01 11:03:07
  TRACK 04 AUDIO
    TITLE "61st And Rich'id"
    PERFORMER "Mel Lewis And The Jazz Orchestra"
    INDEX 00 22:56:00
    INDEX 01 22:58:42
  TRACK 05 AUDIO
    TITLE "Easy Living"
    PERFORMER "Mel Lewis And The Jazz Orchestra"
    INDEX 00 31:28:10
    INDEX 01 31:32:32
  TRACK 06 AUDIO
    TITLE "Que Pasa Bossa"
    PERFORMER "Mel Lewis And The Jazz Orchestra"
    INDEX 00 39:31:17
    INDEX 01 39:35:00
 
 
Об альбоме (сборнике)
This was the first recording by the Mel Lewis Jazz Orchestra, made just a short time after co-leader Thad Jones surprised everyone by suddenly quitting and moving to Europe. Although Jones was gone, the band was still performing his arrangements, and all six of the charts on the set were his; plus, he was the composer of five of the tunes. With such soloists as pianist Jim McNeely, altoist Dick Oatts, trumpeter John Marshall, and the tenors of Bob Rockwell and Richard Perry (along with plenty of tight ensembles), it was clear that the orchestra would live on. Worth searching for. ~ Scott Yanow
 
 
Состав
Mel Lewis (drums), Dick Oatts, Steve Coleman (alto & soprano saxophones, flute), Bob Rockwell, Richard Perry (tenor saxophone, flute), Gary Brown (baritone saxophone), Earl Gardner, Ron Tooley, Larry Moses, John Marshall (trumpet), John Mosca, Lee Robertson, Lollie Bienenfeld (trombone), Jim Daniels (bass trombone), Bob Bowman (bass), Jim McNeely (piano)
Download available for power users only.
11:17
335
Нет комментариев. Ваш будет первым!