Поиск

(M-Base/Fusion/Funk/Contemporary Jazz) Steve Coleman and Five Elements - Black Science - 1991, FLAC (tracks+.cue), lossless

Треклист:
Steve Coleman and Five Elements / Black Science
Жанр: M-Base/Fusion/Funk/Contemporary Jazz
Страна-производитель диска: Germany
Год издания: 1991
Издатель (лейбл): Novus
Номер по каталогу: PD83119
Страна: USA
Аудиокодек: FLAC (*.flac)
Тип рипа: tracks+.cue
Битрейт аудио: lossless
Продолжительность: 51:01
Источник (релизер): funky_cat
Наличие сканов в содержимом раздачи: нет
Треклист:
1 The X Format (Standard Deviation) 06:45
2 Twister 07:48
3 Turbulence 06:22
4 Beyond All We Know 04:10
5 A Vial Of Calm 07:06
6 Black Phonemics 04:01
7 Ghost Town 06:56
8 Magneto 02:52
9 Cross-Fade 03:07
10 Black Phonemics (Reprise) 01:50
 
Лог создания рипа
X Lossless Decoder version 20120609 (141.0)
XLD extraction logfile from 2012-06-14 19:08:41 +0400
Steve Coleman And Five Elements / Black Science
Used drive : HL-DT-ST DVDRW GS23N (revision SB00)
Ripper mode : XLD Secure Ripper
Disable audio cache : OK for the drive with a cache less than 1375KiB
Make use of C2 pointers : NO
Read offset correction : 667
Max retry count : 10
Gap status : Analyzed, Appended
TOC of the extracted CD
Track | Start | Length | Start sector | End sector
---------------------------------------------------------
1 | 00:00:00 | 06:45:08 | 0 | 30382
2 | 06:45:08 | 07:48:25 | 30383 | 65507
3 | 14:33:33 | 06:22:32 | 65508 | 94189
4 | 20:55:65 | 04:10:40 | 94190 | 112979
5 | 25:06:30 | 07:06:33 | 112980 | 144962
6 | 32:12:63 | 04:01:22 | 144963 | 163059
7 | 36:14:10 | 06:56:15 | 163060 | 194274
8 | 43:10:25 | 02:52:33 | 194275 | 207207
9 | 46:02:58 | 03:07:42 | 207208 | 221274
10 | 49:10:25 | 01:50:73 | 221275 | 229597
AccurateRip Summary
Disc not found in AccurateRip DB.
All Tracks
Album gain : -2.10 dB
Peak : 0.999969
Statistics
Read error : 0
Jitter error (maybe fixed) : 0
Retry sector count : 0
Damaged sector count : 0
Track 01
Filename : /Users/olegbelov/Downloads/Steve Coleman - Black Science (1991)/01 - The X Format (Standard Deviation).flac
Pre-gap length : 00:02:00
Track gain : -1.31 dB
Peak : 0.999969
CRC32 hash (test run) : 58534036
CRC32 hash : 58534036
CRC32 hash (skip zero) : 4013091E
AccurateRip v1 signature : 2A2B5F2B
AccurateRip v2 signature : 878B8951
->Track not present in AccurateRip database.
Statistics
Read error : 0
Jitter error (maybe fixed) : 0
Retry sector count : 0
Damaged sector count : 0
Track 02
Filename : /Users/olegbelov/Downloads/Steve Coleman - Black Science (1991)/02 - Twister.flac
Track gain : -2.05 dB
Peak : 0.985596
CRC32 hash (test run) : 6CDD3104
CRC32 hash : 6CDD3104
CRC32 hash (skip zero) : 5CE9750F
AccurateRip v1 signature : 6DE337DA
AccurateRip v2 signature : B3B650AD
->Track not present in AccurateRip database.
Statistics
Read error : 0
Jitter error (maybe fixed) : 0
Retry sector count : 0
Damaged sector count : 0
Track 03
Filename : /Users/olegbelov/Downloads/Steve Coleman - Black Science (1991)/03 - Turbulence.flac
Track gain : -2.46 dB
Peak : 0.988983
CRC32 hash (test run) : BE3D3D4C
CRC32 hash : BE3D3D4C
CRC32 hash (skip zero) : 8102F284
AccurateRip v1 signature : 14C1A5A5
AccurateRip v2 signature : 9E888AAD
->Track not present in AccurateRip database.
Statistics
Read error : 0
Jitter error (maybe fixed) : 0
Retry sector count : 0
Damaged sector count : 0
Track 04
Filename : /Users/olegbelov/Downloads/Steve Coleman - Black Science (1991)/04 - Beyond All We Know.flac
Track gain : -1.74 dB
Peak : 0.793335
CRC32 hash (test run) : A4EDE524
CRC32 hash : A4EDE524
CRC32 hash (skip zero) : 19D3474A
AccurateRip v1 signature : C59E2ECF
AccurateRip v2 signature : B862B1BA
->Track not present in AccurateRip database.
Statistics
Read error : 0
Jitter error (maybe fixed) : 0
Retry sector count : 0
Damaged sector count : 0
Track 05
Filename : /Users/olegbelov/Downloads/Steve Coleman - Black Science (1991)/05 - A Vial Of Calm.flac
Track gain : -1.04 dB
Peak : 0.994843
CRC32 hash (test run) : C5007007
CRC32 hash : C5007007
CRC32 hash (skip zero) : C01EB0C4
AccurateRip v1 signature : E8E6F199
AccurateRip v2 signature : 7A347354
->Track not present in AccurateRip database.
Statistics
Read error : 0
Jitter error (maybe fixed) : 0
Retry sector count : 0
Damaged sector count : 0
Track 06
Filename : /Users/olegbelov/Downloads/Steve Coleman - Black Science (1991)/06 - Black Phonemics.flac
Track gain : -2.57 dB
Peak : 0.983246
CRC32 hash (test run) : AA8182B7
CRC32 hash : AA8182B7
CRC32 hash (skip zero) : E368E003
AccurateRip v1 signature : FDD7660D
AccurateRip v2 signature : 89596F4F
->Track not present in AccurateRip database.
Statistics
Read error : 0
Jitter error (maybe fixed) : 0
Retry sector count : 0
Damaged sector count : 0
Track 07
Filename : /Users/olegbelov/Downloads/Steve Coleman - Black Science (1991)/07 - Ghost Town.flac
Track gain : -2.40 dB
Peak : 0.983643
CRC32 hash (test run) : 28D80317
CRC32 hash : 28D80317
CRC32 hash (skip zero) : 0E95DBFF
AccurateRip v1 signature : E5633F6F
AccurateRip v2 signature : 3798AA3A
->Track not present in AccurateRip database.
Statistics
Read error : 0
Jitter error (maybe fixed) : 0
Retry sector count : 0
Damaged sector count : 0
Track 08
Filename : /Users/olegbelov/Downloads/Steve Coleman - Black Science (1991)/08 - Magneto.flac
Track gain : -1.86 dB
Peak : 0.973572
CRC32 hash (test run) : 618A76F6
CRC32 hash : 618A76F6
CRC32 hash (skip zero) : F38394B2
AccurateRip v1 signature : 47CA005E
AccurateRip v2 signature : 9112E302
->Track not present in AccurateRip database.
Statistics
Read error : 0
Jitter error (maybe fixed) : 0
Retry sector count : 0
Damaged sector count : 0
Track 09
Filename : /Users/olegbelov/Downloads/Steve Coleman - Black Science (1991)/09 - Cross-Fade.flac
Track gain : -3.64 dB
Peak : 0.978546
CRC32 hash (test run) : B2960467
CRC32 hash : B2960467
CRC32 hash (skip zero) : 3B729FFB
AccurateRip v1 signature : 0F3EEDC4
AccurateRip v2 signature : D6FE3E1F
->Track not present in AccurateRip database.
Statistics
Read error : 0
Jitter error (maybe fixed) : 0
Retry sector count : 0
Damaged sector count : 0
Track 10
Filename : /Users/olegbelov/Downloads/Steve Coleman - Black Science (1991)/10 - Black Phonemics (Reprise).flac
Track gain : -2.58 dB
Peak : 0.991394
CRC32 hash (test run) : 4B811C2F
CRC32 hash : 4B811C2F
CRC32 hash (skip zero) : A9787CE7
AccurateRip v1 signature : 39F4F414
AccurateRip v2 signature : 4E79AD7E
->Track not present in AccurateRip database.
Statistics
Read error : 0
Jitter error (maybe fixed) : 0
Retry sector count : 0
Damaged sector count : 0
No errors occurred
End of status report
 
Содержание индексной карты (.CUE)
TITLE "Black Science"
PERFORMER "Steve Coleman And Five Elements"
REM GENRE "Fusion"
REM DATE "1991"
REM DISCID 960BF50A
REM REPLAYGAIN_ALBUM_GAIN -2.10 dB
REM REPLAYGAIN_ALBUM_PEAK 0.999969
FILE "01 - The X Format (Standard Deviation).flac" WAVE
TRACK 01 AUDIO
TITLE "The X Format (Standard Deviation)"
REM REPLAYGAIN_TRACK_GAIN -1.31 dB
REM REPLAYGAIN_TRACK_PEAK 0.999969
INDEX 01 00:00:00
FILE "02 - Twister.flac" WAVE
TRACK 02 AUDIO
TITLE "Twister"
REM REPLAYGAIN_TRACK_GAIN -2.05 dB
REM REPLAYGAIN_TRACK_PEAK 0.985596
INDEX 01 00:00:00
FILE "03 - Turbulence.flac" WAVE
TRACK 03 AUDIO
TITLE "Turbulence"
REM REPLAYGAIN_TRACK_GAIN -2.46 dB
REM REPLAYGAIN_TRACK_PEAK 0.988983
INDEX 01 00:00:00
FILE "04 - Beyond All We Know.flac" WAVE
TRACK 04 AUDIO
TITLE "Beyond All We Know"
REM REPLAYGAIN_TRACK_GAIN -1.74 dB
REM REPLAYGAIN_TRACK_PEAK 0.793335
INDEX 01 00:00:00
FILE "05 - A Vial Of Calm.flac" WAVE
TRACK 05 AUDIO
TITLE "A Vial Of Calm"
REM REPLAYGAIN_TRACK_GAIN -1.04 dB
REM REPLAYGAIN_TRACK_PEAK 0.994843
INDEX 01 00:00:00
FILE "06 - Black Phonemics.flac" WAVE
TRACK 06 AUDIO
TITLE "Black Phonemics"
REM REPLAYGAIN_TRACK_GAIN -2.57 dB
REM REPLAYGAIN_TRACK_PEAK 0.983246
INDEX 01 00:00:00
FILE "07 - Ghost Town.flac" WAVE
TRACK 07 AUDIO
TITLE "Ghost Town"
REM REPLAYGAIN_TRACK_GAIN -2.40 dB
REM REPLAYGAIN_TRACK_PEAK 0.983643
INDEX 01 00:00:00
FILE "08 - Magneto.flac" WAVE
TRACK 08 AUDIO
TITLE "Magneto"
REM REPLAYGAIN_TRACK_GAIN -1.86 dB
REM REPLAYGAIN_TRACK_PEAK 0.973572
INDEX 01 00:00:00
FILE "09 - Cross-Fade.flac" WAVE
TRACK 09 AUDIO
TITLE "Cross-Fade"
REM REPLAYGAIN_TRACK_GAIN -3.64 dB
REM REPLAYGAIN_TRACK_PEAK 0.978546
INDEX 01 00:00:00
FILE "10 - Black Phonemics (Reprise).flac" WAVE
TRACK 10 AUDIO
TITLE "Black Phonemics (Reprise)"
REM REPLAYGAIN_TRACK_GAIN -2.58 dB
REM REPLAYGAIN_TRACK_PEAK 0.991394
INDEX 01 00:00:00
 
Состав
Alto Saxophone – Steve Coleman
Bass – Dave Holland (tracks: 2, 4, 5)
Drums, Percussion – Marvin "Smitty" Smith
Electric Bass – Reggie Washington
Guitar – David Gilmore
Piano, Keyboards – James Weidman
Vocals – Cassandra Wilson (tracks: 1, 4, 5), Najma Akhtar (7), Dave Mills (7)
14:10
489
Нет комментариев. Ваш будет первым!