Поиск

1992 Steve Coleman - Rhythm In Mind {Novus, BMG PD 90654}

1992 Steve Coleman - Rhythm In Mind {Novus, BMG PD 90654}
Издатель (лейбл):
Треклист:
Страна-производитель диска: Germany
Дата записи: 29 апреля 1991
Место записи: Systems Two, Brooklyn, New York
Год издания: 1992
Издатель (лейбл): Novus/BMG
Номер по каталогу: PD 90654
Страна: USA
Аудиокодек: FLAC (*.flac)
Тип рипа: tracks+.cue
Битрейт аудио: lossless
Продолжительность: 57:38
Источник (релизер): funky_cat
Наличие сканов в содержимом раздачи: нет
Треклист:
1 Slipped Again 06:56
2 Left Of Center 08:19
3 Sweet Dawn 08:04
4 Pass It On 08:07
5 Vet Blues 10:25
6 Zec 09:11
7 Afterthoughts 06:33
 
Лог создания рипа
X Lossless Decoder version 20120609 (141.0)
XLD extraction logfile from 2012-06-14 17:53:09 +0400
Steve Coleman / Rhythm in Mind
Used drive : HL-DT-ST DVDRW  GS23N (revision SB00)
Ripper mode             : XLD Secure Ripper
Disable audio cache     : OK for the drive with a cache less than 1375KiB
Make use of C2 pointers : NO
Read offset correction  : 667
Max retry count         : 10
Gap status              : Analyzed, Appended
TOC of the extracted CD
     Track |   Start  |  Length  | Start sector | End sector
    ---------------------------------------------------------
        1  | 00:00:00 | 06:56:43 |         0    |    31242
        2  | 06:56:43 | 08:19:27 |     31243    |    68694
        3  | 15:15:70 | 08:04:40 |     68695    |   105034
        4  | 23:20:35 | 08:07:45 |    105035    |   141604
        5  | 31:28:05 | 10:25:43 |    141605    |   188522
        6  | 41:53:48 | 09:11:25 |    188523    |   229872
        7  | 51:04:73 | 06:33:35 |    229873    |   259382
AccurateRip Summary
    Disc not found in AccurateRip DB.
All Tracks
    Album gain               : -1.91 dB
    Peak                     : 0.998352
    Statistics
        Read error                           : 0
        Jitter error (maybe fixed)           : 0
        Retry sector count                   : 0
        Damaged sector count                 : 0
Track 01
    Filename : /Users/olegbelov/Downloads/Steve Coleman - Rhythm In Mind (1990)/01 - Slipped Again.flac
    Pre-gap length : 00:02:00
    Track gain               : -2.25 dB
    Peak                     : 0.998352
    CRC32 hash (test run)    : 89820763
    CRC32 hash               : 89820763
    CRC32 hash (skip zero)   : EF004848
    AccurateRip v1 signature : 13AAAA7A
    AccurateRip v2 signature : D1798501
        ->Track not present in AccurateRip database.
    Statistics
        Read error                           : 0
        Jitter error (maybe fixed)           : 0
        Retry sector count                   : 0
        Damaged sector count                 : 0
Track 02
    Filename : /Users/olegbelov/Downloads/Steve Coleman - Rhythm In Mind (1990)/02 - Left Of Center.flac
    Track gain               : -0.05 dB
    Peak                     : 0.998291
    CRC32 hash (test run)    : 2422BC2F
    CRC32 hash               : 2422BC2F
    CRC32 hash (skip zero)   : F04E08FF
    AccurateRip v1 signature : E701AB2A
    AccurateRip v2 signature : DB1B5172
        ->Track not present in AccurateRip database.
    Statistics
        Read error                           : 0
        Jitter error (maybe fixed)           : 0
        Retry sector count                   : 0
        Damaged sector count                 : 0
Track 03
    Filename : /Users/olegbelov/Downloads/Steve Coleman - Rhythm In Mind (1990)/03 - Sweet Dawn.flac
    Track gain               : 1.36 dB
    Peak                     : 0.970184
    CRC32 hash (test run)    : 80D53E2E
    CRC32 hash               : 80D53E2E
    CRC32 hash (skip zero)   : 53BAAB53
    AccurateRip v1 signature : 06E3DE7E
    AccurateRip v2 signature : 39ECEBE3
        ->Track not present in AccurateRip database.
    Statistics
        Read error                           : 0
        Jitter error (maybe fixed)           : 0
        Retry sector count                   : 0
        Damaged sector count                 : 0
Track 04
    Filename : /Users/olegbelov/Downloads/Steve Coleman - Rhythm In Mind (1990)/04 - Pass It On.flac
    Track gain               : -3.17 dB
    Peak                     : 0.998352
    CRC32 hash (test run)    : 11E0B2BE
    CRC32 hash               : 11E0B2BE
    CRC32 hash (skip zero)   : A77194EF
    AccurateRip v1 signature : C2812B51
    AccurateRip v2 signature : 2C4B33DC
        ->Track not present in AccurateRip database.
    Statistics
        Read error                           : 0
        Jitter error (maybe fixed)           : 0
        Retry sector count                   : 0
        Damaged sector count                 : 0
Track 05
    Filename : /Users/olegbelov/Downloads/Steve Coleman - Rhythm In Mind (1990)/05 - Vet Blues.flac
    Track gain               : -0.93 dB
    Peak                     : 0.957245
    CRC32 hash (test run)    : 01F99526
    CRC32 hash               : 01F99526
    CRC32 hash (skip zero)   : 74ACC188
    AccurateRip v1 signature : DCE9F2AB
    AccurateRip v2 signature : BCD56FBE
        ->Track not present in AccurateRip database.
    Statistics
        Read error                           : 0
        Jitter error (maybe fixed)           : 0
        Retry sector count                   : 0
        Damaged sector count                 : 0
Track 06
    Filename : /Users/olegbelov/Downloads/Steve Coleman - Rhythm In Mind (1990)/06 - Zec.flac
    Track gain               : -2.91 dB
    Peak                     : 0.998352
    CRC32 hash (test run)    : 39476EC0
    CRC32 hash               : 39476EC0
    CRC32 hash (skip zero)   : 54E4A400
    AccurateRip v1 signature : 76AEC985
    AccurateRip v2 signature : 8368B54D
        ->Track not present in AccurateRip database.
    Statistics
        Read error                           : 0
        Jitter error (maybe fixed)           : 0
        Retry sector count                   : 0
        Damaged sector count                 : 0
Track 07
    Filename : /Users/olegbelov/Downloads/Steve Coleman - Rhythm In Mind (1990)/07 - Afterthoughts.flac
    Track gain               : -1.08 dB
    Peak                     : 0.998322
    CRC32 hash (test run)    : 4A5444BA
    CRC32 hash               : 4A5444BA
    CRC32 hash (skip zero)   : 77ADE5FD
    AccurateRip v1 signature : BB6738CE
    AccurateRip v2 signature : 5A3D0F7E
        ->Track not present in AccurateRip database.
    Statistics
        Read error                           : 0
        Jitter error (maybe fixed)           : 0
        Retry sector count                   : 0
        Damaged sector count                 : 0
No errors occurred
End of status report
 
CUE
TITLE "Rhythm in Mind"
PERFORMER "Steve Coleman"
REM DISCID 550D8207
REM REPLAYGAIN_ALBUM_GAIN -1.91 dB
REM REPLAYGAIN_ALBUM_PEAK 0.998352
FILE "01 - Slipped Again.flac" WAVE
TRACK 01 AUDIO
TITLE "Slipped Again"
REM REPLAYGAIN_TRACK_GAIN -2.25 dB
REM REPLAYGAIN_TRACK_PEAK 0.998352
INDEX 01 00:00:00
FILE "02 - Left Of Center.flac" WAVE
TRACK 02 AUDIO
TITLE "Left Of Center"
REM REPLAYGAIN_TRACK_GAIN -0.05 dB
REM REPLAYGAIN_TRACK_PEAK 0.998291
INDEX 01 00:00:00
FILE "03 - Sweet Dawn.flac" WAVE
TRACK 03 AUDIO
TITLE "Sweet Dawn"
REM REPLAYGAIN_TRACK_GAIN 1.36 dB
REM REPLAYGAIN_TRACK_PEAK 0.970184
INDEX 01 00:00:00
FILE "04 - Pass It On.flac" WAVE
TRACK 04 AUDIO
TITLE "Pass It On"
REM REPLAYGAIN_TRACK_GAIN -3.17 dB
REM REPLAYGAIN_TRACK_PEAK 0.998352
INDEX 01 00:00:00
FILE "05 - Vet Blues.flac" WAVE
TRACK 05 AUDIO
TITLE "Vet Blues"
REM REPLAYGAIN_TRACK_GAIN -0.93 dB
REM REPLAYGAIN_TRACK_PEAK 0.957245
INDEX 01 00:00:00
FILE "06 - Zec.flac" WAVE
TRACK 06 AUDIO
TITLE "Zec"
REM REPLAYGAIN_TRACK_GAIN -2.91 dB
REM REPLAYGAIN_TRACK_PEAK 0.998352
INDEX 01 00:00:00
FILE "07 - Afterthoughts.flac" WAVE
TRACK 07 AUDIO
TITLE "Afterthoughts"
REM REPLAYGAIN_TRACK_GAIN -1.08 dB
REM REPLAYGAIN_TRACK_PEAK 0.998322
INDEX 01 00:00:00
Приватный:
Нет (DHT включён)
Размер:
333.77 Мб (349,985,768 байт) » файлов: 10
Участники:
0 раздают, 0 качают (0 участников всего)
Внешние участники:
1 раздают, 0 качают (1 участников всего) [ Обновить ]
Никого нет на раздаче - пишите личное сообщение M0p94ok
No seeders - write personal message to M0p94ok
15:09
102
Нет комментариев. Ваш будет первым!