Вы используете незарегистрированную версию компонента "Вкладки"!

Поиск

(Leo Records/Jazz/Avant-Garde Jazz/Modern Creative/Free Improvisation) Earthbound - Unity - 1993, FLAC (image+.cue) lossless

Треклист:
Earthbound / Unity
Жанр: Jazz/Avant-Garde Jazz/Modern Creative/Free Improvisation
Страна-производитель диска: EU
Год издания диска: 1993
Издатель (лейбл): Leo Records
Номер по каталогу: CD LR 189
Страна: USA
Аудио кодек: FLAC (*.flac)
Тип рипа: image+.cue
Битрейт аудио: lossless
Продолжительность: 61:07
Источник (релизер): Я
Наличие сканов в содержимом раздачи: да
Треклист:
1 Just Order 02:04
2 A/Impulse B/Crashland C/Air-Free D/Bloody Blue 33:32
3 The Runaround 10:29
4 Omonoia 05:11
5 Conception 06:02
6 Purity 03:48
 
Лог создания рипа
Exact Audio Copy V0.99 prebeta 5 from 4. May 2009
Отчёт EAC об извлечении, выполненном 14. октября 2010, 14:46
Earthbound / Unity
Дисковод: PLEXTOR CD-R PREMIUM2 Adapter: 0 ID: 0
Режим чтения : Достоверность
Использование точного потока : Да
Отключение кэша аудио : Да
Использование указателей C2 : Нет
Коррекция смещения при чтении : 30
Способность читать области Lead-in и Lead-out : Нет
Заполнение пропущенных сэмплов тишиной : Да
Удаление блоков с тишиной в начале и конце : Нет
При вычислениях CRC использовались нулевые сэмплы : Да
Интерфейс : Установленный внешний ASPI-интерфейс
Выходной формат : Пользовательский кодировщик
Выбранный битрейт : 1024 kBit/s
Качество : Высокий
Добавление ID3-тэга : Нет
Утилита сжатия : C:\Program Files\Exact Audio Copy\FLAC\FLAC.EXE
Дополнительные параметры : -6 -V -T "ARTIST=%a" -T "TITLE=%t" -T "ALBUM=%g" -T "DATE=%y" -T "TRACKNUMBER=%n" -T "GENRE=%m" -T "COMMENT=%e" %s -o %d
TOC извлечённого CD
Трек | Старт | Длительность | Начальный сектор | Конечный сектор
---------------------------------------------------------------------
1 | 0:00.32 | 2:04.45 | 32 | 9376
2 | 2:05.02 | 33:32.63 | 9377 | 160339
3 | 35:37.65 | 10:29.10 | 160340 | 207524
4 | 46:07.00 | 5:11.02 | 207525 | 230851
5 | 51:18.02 | 6:02.33 | 230852 | 258034
6 | 57:20.35 | 3:48.05 | 258035 | 275139
Характеристики диапазона извлечения и сообщения об ошибках
Выбранный диапазон
Имя файла C:\Documents and Settings\Anatolij\Мои документы\Earthbound - Unity\Earthbound - Unity.wav
Пиковый уровень 100.0 %
Качество диапазона 100.0 %
CRC теста D0722341
CRC копии D0722341
Копирование... OK
Ошибок не произошло
AccurateRip: сводка
Трек 1 нет в базе данных
Трек 2 нет в базе данных
Трек 3 нет в базе данных
Трек 4 нет в базе данных
Трек 5 нет в базе данных
Трек 6 нет в базе данных
Ни одного трека нет в базе AccurateRip
Конец отчёта
 
Содержание индексной карты (.CUE)
REM GENRE Electronic
REM DATE 1993
REM DISCID 4B0E5406
REM COMMENT "ExactAudioCopy v0.99pb5"
PERFORMER "Earthbound"
TITLE "Unity"
FILE "Earthbound - Unity.flac" WAVE
TRACK 01 AUDIO
TITLE "Just Order"
PERFORMER "Earthbound"
INDEX 00 00:00:00
INDEX 01 00:00:32
TRACK 02 AUDIO
TITLE "Unity"
PERFORMER "Earthbound"
INDEX 00 02:03:37
INDEX 01 02:05:02
TRACK 03 AUDIO
TITLE "The Runaround"
PERFORMER "Earthbound"
INDEX 00 35:31:50
INDEX 01 35:37:65
TRACK 04 AUDIO
TITLE "Omonoia"
PERFORMER "Earthbound"
INDEX 00 46:04:12
INDEX 01 46:07:00
TRACK 05 AUDIO
TITLE "Conception"
PERFORMER "Earthbound"
INDEX 00 51:13:52
INDEX 01 51:18:02
TRACK 06 AUDIO
TITLE "Purity"
PERFORMER "Earthbound"
INDEX 00 57:17:05
INDEX 01 57:20:35
 
Об исполнителе (группе)
 
Состав
Alexandros - piano
Alex Foster - soprano Sax
Victor Jones - drums
Andy McKee - acoustic bass
Steve Thornton - percussion
with special guest:
Cosa Ross - conga
По всем вопросам пишите личное сообщение пользователю M0p94ok.
04:02
171
Нет комментариев. Ваш будет первым!