Поиск

(Avant-Garde / Modern Creative) OM (Leimgruber / Doran / Burri / Studer) - Willisau - 2010, FLAC (image+.cue) lossless

(Avant-Garde / Modern Creative) OM (Leimgruber / Doran / Burri / Studer) - Willisau - 2010, FLAC (image+.cue) lossless
Треклист:
OM (Leimgruber / Doran / Burri / Studer) / Willisau

Жанр: Avant-Garde / Modern Creative
Страна-производитель диска: Switzerland
Год издания диска: 2010
Издатель (лейбл): Intakt
Номер по каталогу: 170
Аудио кодек: FLAC (*.flac)
Тип рипа: image+.cue
Битрейт аудио: lossless
Продолжительность: 1:07:55
Источник (релизер): собственный рип
Наличие сканов в содержимом раздачи: нет
1. Part I
2. Part II
3. Part III
4. Part IV
5. Part V
6. Part VI
7. Part VII
8. Part VIII
9. Part IX
10. Part X
11. Part XI
12. Part XII
Recorded live for Swiss Radio DRS by Martin Pearson at Jazzfestival Willisau, Switzerland, August 27, 2008.
 
Лог создания рипа
Exact Audio Copy V0.99 prebeta 4 from 23. January 2008
EAC extraction logfile from 1. September 2010, 20:11
OM / Willisau
Used drive : TSSTcorpCD/DVDW SH-S182M Adapter: 1 ID: 1
Read mode : Secure
Utilize accurate stream : Yes
Defeat audio cache : Yes
Make use of C2 pointers : No
Read offset correction : 6
Overread into Lead-In and Lead-Out : No
Fill up missing offset samples with silence : Yes
Delete leading and trailing silent blocks : No
Null samples used in CRC calculations : Yes
Used interface : Installed external ASPI interface
Used output format : User Defined Encoder
Selected bitrate : 1024 kBit/s
Quality : High
Add ID3 tag : No
Command line compressor : C:\Program Files\Exact Audio Copy\Flac\flac.exe
Additional command line options : -6 -V -T "ARTIST=%a" -T "TITLE=%t" -T "ALBUM=%g" -T "DATE=%y" -T "TRACKNUMBER=%n" -T "GENRE=%m" -T "COMMENT=EAC FLAC -6" %s
TOC of the extracted CD
Track | Start | Length | Start sector | End sector
---------------------------------------------------------
1 | 0:00.00 | 3:10.04 | 0 | 14253
2 | 3:10.04 | 8:39.32 | 14254 | 53210
3 | 11:49.36 | 3:43.25 | 53211 | 69960
4 | 15:32.61 | 2:33.46 | 69961 | 81481
5 | 18:06.32 | 9:53.35 | 81482 | 125991
6 | 27:59.67 | 7:18.12 | 125992 | 158853
7 | 35:18.04 | 4:02.61 | 158854 | 177064
8 | 39:20.65 | 5:03.10 | 177065 | 199799
9 | 44:24.00 | 9:18.18 | 199800 | 241667
10 | 53:42.18 | 5:56.00 | 241668 | 268367
11 | 59:38.18 | 4:55.32 | 268368 | 290524
12 | 64:33.50 | 3:21.62 | 290525 | 305661
Range status and errors
Selected range
Filename C:\Users\Igor\Music\eac\OM - Willisau.wav
Peak level 95.5 %
Range quality 100.0 %
Test CRC DC9DD14C
Copy CRC DC9DD14C
Copy OK
No errors occurred
AccurateRip summary
Track 1 not present in database
Track 2 not present in database
Track 3 not present in database
Track 4 not present in database
Track 5 not present in database
Track 6 not present in database
Track 7 not present in database
Track 8 not present in database
Track 9 not present in database
Track 10 not present in database
Track 11 not present in database
Track 12 not present in database
None of the tracks are present in the AccurateRip database
End of status report
 
Состав
Urs Leimgruber: soprano and tenor saxophones
Christy Doran: guitar, devices
Bobby Burri: bass, devices
Fredy Studer: drums, percussion
По всем вопросам пишите личное сообщение пользователю M0p94ok.
04:02
201
Нет комментариев. Ваш будет первым!