Поиск

(Latin|World Music|Ethnic) Maria Bethania - Passaro Proibido - 2006|1976, FLAC (tracks+.cue), lossless

Треклист:
Maria Bethania - Passaro Proibido

Жанр: Latin | World Music | Ethnic Jazz
Страна-производитель диска: Brazil
Год издания: 2006|1976
Издатель (лейбл): Mercury|Universal
Номер по каталогу: 5102182
Страна: Brazil
Аудиокодек: FLAC (*.flac)
Тип рипа: tracks+.cue
Битрейт аудио: lossless
Продолжительность: 31:48
Источник (релизер): alexter
Наличие сканов в содержимом раздачи: да
Треклист:
1. As Ayabas
2. Mãe Maria
3. Balada do Lado sem Luz
4. A Bahia te Espera
5. Pecado
6. Olhos nos Olhos
7. Festa
8. Amor, Amor
9. Pássaro Proibido
 
Лог создания рипа
Exact Audio Copy V1.0 beta 3 from 29. August 2011
EAC extraction logfile from 22. March 2013, 23:08
Maria Bethânia / Passaro Proibido
Used drive : ATAPI iHAS124 C Adapter: 2 ID: 0
Read mode : Secure
Utilize accurate stream : Yes
Defeat audio cache : Yes
Make use of C2 pointers : No
Read offset correction : 6
Overread into Lead-In and Lead-Out : No
Fill up missing offset samples with silence : Yes
Delete leading and trailing silent blocks : No
Null samples used in CRC calculations : Yes
Used interface : Native Win32 interface for Win NT & 2000
Gap handling : Appended to previous track
Used output format : User Defined Encoder
Selected bitrate : 256 kBit/s
Quality : High
Add ID3 tag : No
Command line compressor : C:\Program Files\FLAC\flac.exe
Additional command line options : -8 -V -T "ARTIST=%artist%" -T "TITLE=%title%" -T "ALBUM=%albumtitle%" -T "DATE=%year%" -T "TRACKNUMBER=%tracknr%" -T "TOTALTRACKS=%numtracks%" -T "GENRE=%genre%" -T "ALBUMARTIST=%albumartist%" -T "ALBUM ARTIST=%albumartist%" -T "COMMENT=EAC Secure Mode, Test & Copy, AccurateRip, FLAC -8" %source%
TOC of the extracted CD
Track | Start | Length | Start sector | End sector
---------------------------------------------------------
1 | 0:00.00 | 6:34.45 | 0 | 29594
2 | 6:34.45 | 2:54.22 | 29595 | 42666
3 | 9:28.67 | 3:20.58 | 42667 | 57724
4 | 12:49.50 | 1:41.35 | 57725 | 65334
5 | 14:31.10 | 2:18.42 | 65335 | 75726
6 | 16:49.52 | 4:35.68 | 75727 | 96419
7 | 21:25.45 | 2:28.10 | 96420 | 107529
8 | 23:53.55 | 3:45.55 | 107530 | 124459
9 | 27:39.35 | 4:08.32 | 124460 | 143091
Track 1
Filename D:\Temp\01 - As Ayabas.wav
Pre-gap length 0:00:02.00
Peak level 100.0 %
Extraction speed 5.7 X
Track quality 100.0 %
Test CRC FE7059D6
Copy CRC FE7059D6
Track not present in AccurateRip database
Copy OK
Track 2
Filename D:\Temp\02 - Mae Maria.wav
Peak level 98.6 %
Extraction speed 4.6 X
Track quality 99.9 %
Test CRC 8D37C89D
Copy CRC 8D37C89D
Track not present in AccurateRip database
Copy OK
Track 3
Filename D:\Temp\03 - Balada do Lado sem Luz.wav
Peak level 98.8 %
Extraction speed 6.4 X
Track quality 100.0 %
Test CRC 7B042FFE
Copy CRC 7B042FFE
Track not present in AccurateRip database
Copy OK
Track 4
Filename D:\Temp\04 - A Bahia te Espera.wav
Peak level 98.7 %
Extraction speed 5.8 X
Track quality 100.0 %
Test CRC D48063DD
Copy CRC D48063DD
Track not present in AccurateRip database
Copy OK
Track 5
Filename D:\Temp\05 - Pecado.wav
Peak level 99.0 %
Extraction speed 6.5 X
Track quality 100.0 %
Test CRC D43624F5
Copy CRC D43624F5
Track not present in AccurateRip database
Copy OK
Track 6
Filename D:\Temp\06 - Olhos nos Olhos.wav
Peak level 98.8 %
Extraction speed 6.3 X
Track quality 99.9 %
Test CRC 47CA0B00
Copy CRC 47CA0B00
Track not present in AccurateRip database
Copy OK
Track 7
Filename D:\Temp\07 - Festa.wav
Peak level 98.9 %
Extraction speed 7.2 X
Track quality 100.0 %
Test CRC 3ED2A39C
Copy CRC 3ED2A39C
Track not present in AccurateRip database
Copy OK
Track 8
Filename D:\Temp\08 - Amor, Amor.wav
Peak level 98.8 %
Extraction speed 6.5 X
Track quality 99.9 %
Test CRC B03FD3B2
Copy CRC B03FD3B2
Track not present in AccurateRip database
Copy OK
Track 9
Filename D:\Temp\09 - Passaro Proibido.wav
Peak level 99.0 %
Extraction speed 8.6 X
Track quality 100.0 %
Test CRC B05CE7CD
Copy CRC B05CE7CD
Track not present in AccurateRip database
Copy OK
None of the tracks are present in the AccurateRip database
No errors occurred
End of status report
==== Log checksum 7C7A9CFC8B882E60BB355267AB27CA73C81061EB5404147E382D59305A75ABAD ====
 
Содержание индексной карты (.CUE)
REM GENRE Misc
REM DATE 1976
REM DISCID 71077309
REM COMMENT "ExactAudioCopy v1.0b3"
PERFORMER "Maria Bethвnia"
TITLE "Passaro Proibido"
FILE "01 - As Ayabas.wav" WAVE
TRACK 01 AUDIO
TITLE "As Ayabas"
PERFORMER "Maria Bethвnia"
INDEX 01 00:00:00
FILE "02 - Mae Maria.wav" WAVE
TRACK 02 AUDIO
TITLE "Mae Maria"
PERFORMER "Maria Bethвnia"
INDEX 01 00:00:00
FILE "03 - Balada do Lado sem Luz.wav" WAVE
TRACK 03 AUDIO
TITLE "Balada do Lado sem Luz"
PERFORMER "Maria Bethвnia"
INDEX 01 00:00:00
FILE "04 - A Bahia te Espera.wav" WAVE
TRACK 04 AUDIO
TITLE "A Bahia te Espera"
PERFORMER "Maria Bethвnia"
INDEX 01 00:00:00
FILE "05 - Pecado.wav" WAVE
TRACK 05 AUDIO
TITLE "Pecado"
PERFORMER "Maria Bethвnia"
INDEX 01 00:00:00
FILE "06 - Olhos nos Olhos.wav" WAVE
TRACK 06 AUDIO
TITLE "Olhos nos Olhos"
PERFORMER "Maria Bethвnia"
INDEX 01 00:00:00
FILE "07 - Festa.wav" WAVE
TRACK 07 AUDIO
TITLE "Festa"
PERFORMER "Maria Bethвnia"
INDEX 01 00:00:00
FILE "08 - Amor, Amor.wav" WAVE
TRACK 08 AUDIO
TITLE "Amor, Amor"
PERFORMER "Maria Bethвnia"
INDEX 01 00:00:00
FILE "09 - Passaro Proibido.wav" WAVE
TRACK 09 AUDIO
TITLE "Passaro Proibido"
PERFORMER "Maria Bethвnia"
INDEX 01 00:00:00
 
Об альбоме (сборнике)
This album contains the hit OLHOS NOS OLHOS which transitioned
Bethania from an FM elite-type singer into an AM radio popular
singer in Brazil.It starts with an ode to some orixas, AS AYABAS
and a ballad named MAE MARIA.There is a rural flavor to this disk
as shown in the excellent tunes FESTA and A BAHIA TE ESPERA.
Her purry voice sounds as good as ever set against the backdrop
of the arrangements varying from track to track.Interestingly,
the album closes with the title track PASSARO PROIBIDO
as sung by brother Caetano.
Не забываем нажать - сказать "Спасибо"
11:27
278
Нет комментариев. Ваш будет первым!