Поиск

(Latin|World Music|Ethnic) Maria Bethania - Passaro da Manha - 2006|1977, FLAC (tracks+.cue), lossless

Треклист:
Maria Bethania - Passaro da Manha

Жанр: Latin | World Music | Ethnic
Страна-производитель диска: Brazil
Год издания: 2006|1977
Издатель (лейбл): Mercury|Universal
Номер по каталогу: 8489402
Страна: Brazil
Аудиокодек: FLAC (*.flac)
Тип рипа: tracks+.cue
Битрейт аудио: lossless
Продолжительность: 31:01
Источник (релизер): alexter
Наличие сканов в содержимом раздачи: да
Треклист:
1. Até Pensei
2. Tigresa
3. Um Jeito Estúpido de Te Amar
4. Começaria Tudo Outra Vez
5. Promessa
6. Gente
7. Há um Deus
8. Terezinha
9. Por Causa desta Cabocla
10. O que Será (Á Flor da Pele)
Доп. информация:
А здесь Мария ещё читает стихи и всё красиво переходит в мелодию...золотые годы для Марии, конец 70х.
Лог создания рипа
Exact Audio Copy V1.0 beta 3 from 29. August 2011
EAC extraction logfile from 23. March 2013, 2:31
Maria Bethânia / Passaro da Manha
Used drive : ATAPI iHAS124 C Adapter: 2 ID: 0
Read mode : Secure
Utilize accurate stream : Yes
Defeat audio cache : Yes
Make use of C2 pointers : No
Read offset correction : 6
Overread into Lead-In and Lead-Out : No
Fill up missing offset samples with silence : Yes
Delete leading and trailing silent blocks : No
Null samples used in CRC calculations : Yes
Used interface : Native Win32 interface for Win NT & 2000
Gap handling : Appended to previous track
Used output format : User Defined Encoder
Selected bitrate : 256 kBit/s
Quality : High
Add ID3 tag : No
Command line compressor : C:\Program Files\FLAC\flac.exe
Additional command line options : -8 -V -T "ARTIST=%artist%" -T "TITLE=%title%" -T "ALBUM=%albumtitle%" -T "DATE=%year%" -T "TRACKNUMBER=%tracknr%" -T "TOTALTRACKS=%numtracks%" -T "GENRE=%genre%" -T "ALBUMARTIST=%albumartist%" -T "ALBUM ARTIST=%albumartist%" -T "COMMENT=EAC Secure Mode, Test & Copy, AccurateRip, FLAC -8" %source%
TOC of the extracted CD
Track | Start | Length | Start sector | End sector
---------------------------------------------------------
1 | 0:00.00 | 1:27.10 | 0 | 6534
2 | 1:27.10 | 5:40.05 | 6535 | 32039
3 | 7:07.15 | 4:07.42 | 32040 | 50606
4 | 11:14.57 | 2:17.53 | 50607 | 60934
5 | 13:32.35 | 2:16.52 | 60935 | 71186
6 | 15:49.12 | 2:56.68 | 71187 | 84454
7 | 18:46.05 | 2:19.55 | 84455 | 94934
8 | 21:05.60 | 2:49.07 | 94935 | 107616
9 | 23:54.67 | 4:44.30 | 107617 | 128946
10 | 28:39.22 | 2:21.64 | 128947 | 139585
Track 1
Filename D:\Temp\01 - Ate Pensei.wav
Pre-gap length 0:00:02.00
Peak level 95.9 %
Extraction speed 1.4 X
Track quality 100.0 %
Test CRC D489AE7B
Copy CRC D489AE7B
Track not present in AccurateRip database
Copy OK
Track 2
Filename D:\Temp\02 - Tigresa.wav
Pre-gap length 0:00:01.43
Peak level 97.9 %
Extraction speed 2.1 X
Track quality 100.0 %
Test CRC 49D3F36E
Copy CRC 49D3F36E
Track not present in AccurateRip database
Copy OK
Track 3
Filename D:\Temp\03 - Um Jeito Estupido de Te Amar.wav
Pre-gap length 0:00:02.03
Peak level 97.3 %
Extraction speed 2.2 X
Track quality 100.0 %
Test CRC D32B2078
Copy CRC D32B2078
Track not present in AccurateRip database
Copy OK
Track 4
Filename D:\Temp\04 - Comecaria Tudo Outra Vez.wav
Pre-gap length 0:00:02.17
Peak level 100.0 %
Extraction speed 2.2 X
Track quality 100.0 %
Test CRC 77D93A0E
Copy CRC 77D93A0E
Track not present in AccurateRip database
Copy OK
Track 5
Filename D:\Temp\05 - Promessa.wav
Pre-gap length 0:00:01.70
Peak level 98.2 %
Extraction speed 2.3 X
Track quality 100.0 %
Test CRC 234652D4
Copy CRC 234652D4
Track not present in AccurateRip database
Copy OK
Track 6
Filename D:\Temp\06 - Gente.wav
Pre-gap length 0:00:02.02
Peak level 97.6 %
Extraction speed 2.5 X
Track quality 100.0 %
Test CRC CA0D9609
Copy CRC CA0D9609
Track not present in AccurateRip database
Copy OK
Track 7
Filename D:\Temp\07 - Ha um Deus.wav
Pre-gap length 0:00:01.50
Peak level 97.0 %
Extraction speed 2.5 X
Track quality 100.0 %
Test CRC 14161731
Copy CRC 14161731
Track not present in AccurateRip database
Copy OK
Track 8
Filename D:\Temp\08 - Terezinha.wav
Pre-gap length 0:00:01.08
Peak level 100.0 %
Extraction speed 2.6 X
Track quality 100.0 %
Test CRC 992E2EBB
Copy CRC 992E2EBB
Track not present in AccurateRip database
Copy OK
Track 9
Filename D:\Temp\09 - Por Causa desta Cabocla.wav
Pre-gap length 0:00:01.40
Peak level 98.5 %
Extraction speed 3.0 X
Track quality 100.0 %
Test CRC 3C7B595B
Copy CRC 3C7B595B
Track not present in AccurateRip database
Copy OK
Track 10
Filename D:\Temp\10 - O que Sera.wav
Pre-gap length 0:00:01.35
Peak level 98.6 %
Extraction speed 2.8 X
Track quality 100.0 %
Test CRC BAC18A7E
Copy CRC BAC18A7E
Track not present in AccurateRip database
Copy OK
None of the tracks are present in the AccurateRip database
No errors occurred
End of status report
==== Log checksum 0361A525D4434E64D573E52CE0CF72A110C09C6B889EFFBA5ACA79FF2A2CDEA4 ====
 
Содержание индексной карты (.CUE)
REM GENRE Misc
REM DATE 1977
REM DISCID 8607450A
REM COMMENT "ExactAudioCopy v1.0b3"
PERFORMER "Maria Bethвnia"
TITLE "Passaro da Manha"
FILE "01 - Ate Pensei.wav" WAVE
TRACK 01 AUDIO
TITLE "Ate Pensei"
PERFORMER "Maria Bethвnia"
INDEX 01 00:00:00
TRACK 02 AUDIO
TITLE "Tigresa"
PERFORMER "Maria Bethвnia"
INDEX 00 01:25:42
FILE "02 - Tigresa.wav" WAVE
INDEX 01 00:00:00
TRACK 03 AUDIO
TITLE "Um Jeito Estupido de Te Amar"
PERFORMER "Maria Bethвnia"
INDEX 00 05:38:02
FILE "03 - Um Jeito Estupido de Te Amar.wav" WAVE
INDEX 01 00:00:00
TRACK 04 AUDIO
TITLE "Comecaria Tudo Outra Vez"
PERFORMER "Maria Bethвnia"
INDEX 00 04:05:25
FILE "04 - Comecaria Tudo Outra Vez.wav" WAVE
INDEX 01 00:00:00
TRACK 05 AUDIO
TITLE "Promessa"
PERFORMER "Maria Bethвnia"
INDEX 00 02:15:58
FILE "05 - Promessa.wav" WAVE
INDEX 01 00:00:00
TRACK 06 AUDIO
TITLE "Gente"
PERFORMER "Maria Bethвnia"
INDEX 00 02:14:50
FILE "06 - Gente.wav" WAVE
INDEX 01 00:00:00
TRACK 07 AUDIO
TITLE "Ha um Deus"
PERFORMER "Maria Bethвnia"
INDEX 00 02:55:18
FILE "07 - Ha um Deus.wav" WAVE
INDEX 01 00:00:00
TRACK 08 AUDIO
TITLE "Terezinha"
PERFORMER "Maria Bethвnia"
INDEX 00 02:18:47
FILE "08 - Terezinha.wav" WAVE
INDEX 01 00:00:00
TRACK 09 AUDIO
TITLE "Por Causa desta Cabocla"
PERFORMER "Maria Bethвnia"
INDEX 00 02:47:42
FILE "09 - Por Causa desta Cabocla.wav" WAVE
INDEX 01 00:00:00
TRACK 10 AUDIO
TITLE "O que Sera"
PERFORMER "Maria Bethвnia"
INDEX 00 04:42:70
FILE "10 - O que Sera.wav" WAVE
INDEX 01 00:00:00
 
Об исполнителе (группе)
Maria Bethânia, sister of Caetano Veloso, is a renowned singer
on her own. Her scenic, dramatic abilities, in a profoundly
Brazilian tradition, make her performances quite personal,
which has brought her a massive and faithful audience
over the decades.
Не забываем нажать - сказать "Спасибо"
11:27
270
Нет комментариев. Ваш будет первым!