Поиск

(Latin, Swing, Dance) Pepe & The Bottle Blondes - Late Night Betty - 2000, FLAC (tracks+.cue), lossless

(Latin, Swing, Dance) Pepe & The Bottle Blondes - Late Night Betty - 2000, FLAC (tracks+.cue), lossless
Треклист:
Pepe & The Bottle Blondes - Late Night Betty
Жанр: Latin, Swing, Dance
Год выпуска диска: 2000
Аудио кодек: FLAC
Тип рипа: tracks+.cue
Битрейт аудио: lossless
Продолжительность: 0:40:57
Трэклист:
01. Rumba de 5 Kilos (3:03)
02. L'Organguta (3:31)
03. Cuentame Que Te Paso (3:06)
04. I Want Some Lovin' (2:36)
05. Joselito (4:10)
06. Tarzacheando (4:41)
07. El Vals de Tomas (4:04)
08. Lo Dudo (3:28)
09. Boom Boom (3:05)
10. Quizas (3:54)
11. Sing Sing Sing (3:41)
12. Unnamed (1:38)
 
EAC log
Exact Audio Copy V0.99 prebeta 4 from 23. January 2008
EAC extraction logfile from 24. August 2008, 16:24
Pepe & The Bottle Blondes / Late Night Betty
Used drive : SONY CD-RW CRX230ED Adapter: 1 ID: 1
Read mode : Secure
Utilize accurate stream : Yes
Defeat audio cache : Yes
Make use of C2 pointers : Yes
Read offset correction : 6
Overread into Lead-In and Lead-Out : No
Fill up missing offset samples with silence : Yes
Delete leading and trailing silent blocks : No
Null samples used in CRC calculations : Yes
Used interface : Native Win32 interface for Win NT & 2000
Gap handling : Not detected, thus appended to previous track
Used output format : User Defined Encoder
Selected bitrate : 192 kBit/s
Quality : High
Add ID3 tag : No
Command line compressor : C:\Program Files\Exact Audio Copy\Flac\flac.exe
Additional command line options : -V -8 -T "artist=%a" -T "title=%t" -T "album=%g" -T "date=%y" -T "tracknumber=%n" -T "genre=%m" %s
TOC of the extracted CD
Track | Start | Length | Start sector | End sector
---------------------------------------------------------
1 | 0:00.00 | 3:02.70 | 0 | 13719
2 | 3:02.70 | 3:31.32 | 13720 | 29576
3 | 6:34.27 | 3:06.08 | 29577 | 43534
4 | 9:40.35 | 2:35.40 | 43535 | 55199
5 | 12:16.00 | 4:09.50 | 55200 | 73924
6 | 16:25.50 | 4:41.22 | 73925 | 95021
7 | 21:06.72 | 4:04.23 | 95022 | 113344
8 | 25:11.20 | 3:27.70 | 113345 | 128939
9 | 28:39.15 | 3:04.47 | 128940 | 142786
10 | 31:43.62 | 3:54.20 | 142787 | 160356
11 | 35:38.07 | 3:41.08 | 160357 | 176939
12 | 39:19.15 | 1:38.22 | 176940 | 184311
Track 1
Filename C:\EACrips\Pepe & The Bottle Blondes - Late Night Betty\01 Pepe & The Bottle Blondes - Rumba de 5 Kilos.wav
Peak level 98.8 %
Track quality 99.8 %
Copy CRC EC1D0F77
Accurately ripped (confidence 3) [5D2AAF07]
Copy OK
Track 2
Filename C:\EACrips\Pepe & The Bottle Blondes - Late Night Betty\02 Pepe & The Bottle Blondes - L'Organguta.wav
Peak level 98.8 %
Track quality 100.0 %
Copy CRC 5C747A2C
Accurately ripped (confidence 3) [C347E92B]
Copy OK
Track 3
Filename C:\EACrips\Pepe & The Bottle Blondes - Late Night Betty\03 Pepe & The Bottle Blondes - Cuentame Que Te Paso.wav
Peak level 98.8 %
Track quality 100.0 %
Copy CRC C5F53C02
Accurately ripped (confidence 3) [7877151C]
Copy OK
Track 4
Filename C:\EACrips\Pepe & The Bottle Blondes - Late Night Betty\04 Pepe & The Bottle Blondes - I Want Some Lovin'.wav
Peak level 98.8 %
Track quality 99.8 %
Copy CRC 809EB798
Accurately ripped (confidence 3) [74B3CDA0]
Copy OK
Track 5
Filename C:\EACrips\Pepe & The Bottle Blondes - Late Night Betty\05 Pepe & The Bottle Blondes - Joselito.wav
Peak level 98.8 %
Track quality 100.0 %
Copy CRC 059D7535
Accurately ripped (confidence 3) [7D4C2CFC]
Copy OK
Track 6
Filename C:\EACrips\Pepe & The Bottle Blondes - Late Night Betty\06 Pepe & The Bottle Blondes - Tarzacheando.wav
Peak level 98.8 %
Track quality 100.0 %
Copy CRC 1C88E592
Accurately ripped (confidence 3) [631BBA7B]
Copy OK
Track 7
Filename C:\EACrips\Pepe & The Bottle Blondes - Late Night Betty\07 Pepe & The Bottle Blondes - El Vals de Tomas.wav
Peak level 98.8 %
Track quality 100.0 %
Copy CRC 80334CEE
Accurately ripped (confidence 3) [A1F1AD29]
Copy OK
Track 8
Filename C:\EACrips\Pepe & The Bottle Blondes - Late Night Betty\08 Pepe & The Bottle Blondes - Lo Dudo.wav
Peak level 98.5 %
Track quality 100.0 %
Copy CRC E010A82C
Accurately ripped (confidence 3) [E57DE12D]
Copy OK
Track 9
Filename C:\EACrips\Pepe & The Bottle Blondes - Late Night Betty\09 Pepe & The Bottle Blondes - Boom Boom.wav
Peak level 98.8 %
Track quality 100.0 %
Copy CRC A3C7C2D2
Accurately ripped (confidence 3) [2B71A320]
Copy OK
Track 10
Filename C:\EACrips\Pepe & The Bottle Blondes - Late Night Betty\10 Pepe & The Bottle Blondes - Quizas.wav
Peak level 98.8 %
Track quality 99.9 %
Copy CRC 87780670
Accurately ripped (confidence 3) [03D53499]
Copy OK
Track 11
Filename C:\EACrips\Pepe & The Bottle Blondes - Late Night Betty\11 Pepe & The Bottle Blondes - Sing Sing Sing.wav
Peak level 98.8 %
Track quality 100.0 %
Copy CRC 465C0B57
Accurately ripped (confidence 3) [8FC540DD]
Copy OK
Track 12
Filename C:\EACrips\Pepe & The Bottle Blondes - Late Night Betty\12 Pepe & The Bottle Blondes - Unnamed.wav
Peak level 94.5 %
Track quality 100.0 %
Copy CRC 30CF3832
Accurately ripped (confidence 3) [CBEBF0C8]
Copy OK
All tracks accurately ripped
No errors occurred
End of status report
 
Audiocheker's log
Started at: четверг, 12. 03. 2009. - 3:22.21
12 files found
01 -===- G:\Downloads\Pepe & The Bottle Blondes - Late Night Betty-1CD-2000-FLAC\01 Rumba de 5 Kilos.flac
Extracted successfully
Conclusion: this track is CDDA with probability 100%
Tempfile successfully deleted.
02 -===- G:\Downloads\Pepe & The Bottle Blondes - Late Night Betty-1CD-2000-FLAC\02 L'Organguta.flac
Extracted successfully
Conclusion: this track is CDDA with probability 100%
Tempfile successfully deleted.
03 -===- G:\Downloads\Pepe & The Bottle Blondes - Late Night Betty-1CD-2000-FLAC\03 Cuentame Que Te Paso.flac
Extracted successfully
Conclusion: this track is CDDA with probability 100%
Tempfile successfully deleted.
04 -===- G:\Downloads\Pepe & The Bottle Blondes - Late Night Betty-1CD-2000-FLAC\04 I Want Some Lovin'.flac
Extracted successfully
Conclusion: this track is CDDA with probability 99%
Tempfile successfully deleted.
05 -===- G:\Downloads\Pepe & The Bottle Blondes - Late Night Betty-1CD-2000-FLAC\05 Joselito.flac
Extracted successfully
Conclusion: this track is CDDA with probability 100%
Tempfile successfully deleted.
06 -===- G:\Downloads\Pepe & The Bottle Blondes - Late Night Betty-1CD-2000-FLAC\06 Tarzacheando.flac
Extracted successfully
Conclusion: this track is CDDA with probability 99%
Tempfile successfully deleted.
07 -===- G:\Downloads\Pepe & The Bottle Blondes - Late Night Betty-1CD-2000-FLAC\07 El Vals de Tomas.flac
Extracted successfully
Conclusion: this track is CDDA with probability 100%
Tempfile successfully deleted.
08 -===- G:\Downloads\Pepe & The Bottle Blondes - Late Night Betty-1CD-2000-FLAC\08 Lo Dudo.flac
Extracted successfully
Conclusion: this track is CDDA with probability 99%
Tempfile successfully deleted.
09 -===- G:\Downloads\Pepe & The Bottle Blondes - Late Night Betty-1CD-2000-FLAC\09 Boom Boom.flac
Extracted successfully
Conclusion: this track is CDDA with probability 100%
Tempfile successfully deleted.
10 -===- G:\Downloads\Pepe & The Bottle Blondes - Late Night Betty-1CD-2000-FLAC\10 Quizas.flac
Extracted successfully
Conclusion: this track is CDDA with probability 100%
Tempfile successfully deleted.
11 -===- G:\Downloads\Pepe & The Bottle Blondes - Late Night Betty-1CD-2000-FLAC\11 Sing Sing Sing.flac
Extracted successfully
Conclusion: this track is CDDA with probability 100%
Tempfile successfully deleted.
12 -===- G:\Downloads\Pepe & The Bottle Blondes - Late Night Betty-1CD-2000-FLAC\12 Unnamed.flac
Extracted successfully
Conclusion: this track is CDDA with probability 100%
Tempfile successfully deleted.
Finished at: четверг, 12. 03. 2009. - 3:34.00 (operation time: 0:11.39)
 
CUE
REM GENRE Latin
REM DATE 2000
REM DISCID A209990C
REM COMMENT "ExactAudioCopy v0.99pb4"
PERFORMER "Pepe & The Bottle Blondes"
TITLE "Late Night Betty"
FILE "Pepe & The Bottle Blondes - Late Night Betty\01 Pepe & The Bottle Blondes - Rumba de 5 Kilos.wav" WAVE
TRACK 01 AUDIO
TITLE "Rumba de 5 Kilos"
PERFORMER "Pepe & The Bottle Blondes"
INDEX 01 00:00:00
TRACK 02 AUDIO
TITLE "L'Organguta"
PERFORMER "Pepe & The Bottle Blondes"
INDEX 00 03:01:59
FILE "Pepe & The Bottle Blondes - Late Night Betty\02 Pepe & The Bottle Blondes - L'Organguta.wav" WAVE
INDEX 01 00:00:00
TRACK 03 AUDIO
TITLE "Cuentame Que Te Paso"
PERFORMER "Pepe & The Bottle Blondes"
INDEX 00 03:30:33
FILE "Pepe & The Bottle Blondes - Late Night Betty\03 Pepe & The Bottle Blondes - Cuentame Que Te Paso.wav" WAVE
INDEX 01 00:00:00
TRACK 04 AUDIO
TITLE "I Want Some Lovin'"
PERFORMER "Pepe & The Bottle Blondes"
INDEX 00 03:04:51
FILE "Pepe & The Bottle Blondes - Late Night Betty\04 Pepe & The Bottle Blondes - I Want Some Lovin'.wav" WAVE
INDEX 01 00:00:00
TRACK 05 AUDIO
TITLE "Joselito "
PERFORMER "Pepe & The Bottle Blondes"
INDEX 00 02:34:31
FILE "Pepe & The Bottle Blondes - Late Night Betty\05 Pepe & The Bottle Blondes - Joselito.wav" WAVE
INDEX 01 00:00:00
TRACK 06 AUDIO
TITLE "Tarzacheando"
PERFORMER "Pepe & The Bottle Blondes"
INDEX 00 04:08:23
FILE "Pepe & The Bottle Blondes - Late Night Betty\06 Pepe & The Bottle Blondes - Tarzacheando.wav" WAVE
INDEX 01 00:00:00
TRACK 07 AUDIO
TITLE "El Vals de Tomas"
PERFORMER "Pepe & The Bottle Blondes"
INDEX 00 04:40:25
FILE "Pepe & The Bottle Blondes - Late Night Betty\07 Pepe & The Bottle Blondes - El Vals de Tomas.wav" WAVE
INDEX 01 00:00:00
TRACK 08 AUDIO
TITLE "Lo Dudo"
PERFORMER "Pepe & The Bottle Blondes"
INDEX 00 04:03:60
FILE "Pepe & The Bottle Blondes - Late Night Betty\08 Pepe & The Bottle Blondes - Lo Dudo.wav" WAVE
INDEX 01 00:00:00
TRACK 09 AUDIO
TITLE "Boom Boom "
PERFORMER "Pepe & The Bottle Blondes"
INDEX 00 03:27:02
FILE "Pepe & The Bottle Blondes - Late Night Betty\09 Pepe & The Bottle Blondes - Boom Boom.wav" WAVE
INDEX 01 00:00:00
TRACK 10 AUDIO
TITLE "Quizas "
PERFORMER "Pepe & The Bottle Blondes"
INDEX 00 03:04:13
FILE "Pepe & The Bottle Blondes - Late Night Betty\10 Pepe & The Bottle Blondes - Quizas.wav" WAVE
INDEX 01 00:00:00
TRACK 11 AUDIO
TITLE "Sing Sing Sing"
PERFORMER "Pepe & The Bottle Blondes"
INDEX 00 03:52:72
FILE "Pepe & The Bottle Blondes - Late Night Betty\11 Pepe & The Bottle Blondes - Sing Sing Sing.wav" WAVE
INDEX 01 00:00:00
TRACK 12 AUDIO
TITLE "Unnamed"
PERFORMER "Pepe & The Bottle Blondes"
INDEX 00 03:39:67
FILE "Pepe & The Bottle Blondes - Late Night Betty\12 Pepe & The Bottle Blondes - Unnamed.wav" WAVE
INDEX 01 00:00:00
Доп. информация:
Источник - другой трекер. Сканов нет. Указатели C2 не отключены. Релизер - treymob.
06:17
256
Нет комментариев. Ваш будет первым!