Поиск

(Latin Soul, Salsa) [CD] Joe Bataan - Subway Joe (1968), Gypsy Woman (1967) (2in1) - 2001, FLAC (tracks+.cue), lossless

(Latin Soul, Salsa) [CD] Joe Bataan - Subway Joe (1968), Gypsy Woman (1967) (2in1) - 2001, FLAC (tracks+.cue), lossless
Joe Bataan - Subway Joe, Gypsy Woman
Жанр: Latin Soul, Salsa
Носитель: CD
Страна-производитель диска (релиза): Великобритания
Год издания: 2001
Издатель (лейбл): Nascente
Номер по каталогу: NSBTB 005
Страна исполнителя (группы): США
Аудиокодек: FLAC (*.flac)
Тип рипа: tracks+.cue
Битрейт аудио: lossless
Продолжительность: 72:44
Источник (релизер): What.CD
Наличие сканов в содержимом раздачи: да
Треклист:
Subway Joe (1968)
01. Subway Joe (Bataan) - 2:59
02. Juanito (Bataan) - 5:38
03. Mujer Mia (Bataan) - 5:56
04. Nuevo Jala Jala (Bataan) - 5:02
05. Special Girl (Bataan) - 2:53
06. Ponte en Algo (Bataan) - 5:25
07. Triste (Bataan) - 8:12
08. Magic Rose (Bataan) - 4:03
Gypsy Woman (1967)
09. Gypsy Woman (Bataan) - 2:33
10. So Fine (Bataan) - 3:08
11. Fuego (Bataan) - 6:30
12. Campesino (Bataan) - 3:46
13. Chickie's Trombone (Bataan) - 2:39
14. Too Much Lovin' (Bataan) - 2:37
15. Sugar Guaguanco (Bataan) - 3:57
16. Figaro (Bataan) - 3:59
17. Ordinary Guy (Bataan) - 3:27
 
Лог создания рипа
Exact Audio Copy V0.99 prebeta 5 from 4. May 2009
EAC extraction logfile from 18. May 2010, 20:18
Joe Bataan / Subway Joe/Gypsy Woman
Used drive : HL-DT-STDVD-RAM GH22NP20 Adapter: 1 ID: 1
Read mode : Secure
Utilize accurate stream : Yes
Defeat audio cache : Yes
Make use of C2 pointers : No
Read offset correction : 102
Overread into Lead-In and Lead-Out : Yes
Fill up missing offset samples with silence : Yes
Delete leading and trailing silent blocks : No
Null samples used in CRC calculations : Yes
Used interface : Native Win32 interface for Win NT & 2000
Gap handling : Appended to previous track
Used output format : User Defined Encoder
Selected bitrate : 1024 kBit/s
Quality : High
Add ID3 tag : No
Command line compressor : C:\Program Files\Exact Audio Copy\Flac\flac.exe
Additional command line options : -V -8 -T "artist=%a" -T "title=%t" -T "album=%g" -T "date=%y" -T "tracknumber=%n" -T "genre=%m" %s
TOC of the extracted CD
Track | Start | Length | Start sector | End sector
---------------------------------------------------------
1 | 0:00.00 | 2:59.21 | 0 | 13445
2 | 2:59.21 | 5:38.10 | 13446 | 38805
3 | 8:37.31 | 5:56.24 | 38806 | 65529
4 | 14:33.55 | 5:02.17 | 65530 | 88196
5 | 19:35.72 | 2:52.61 | 88197 | 101157
6 | 22:28.58 | 5:24.38 | 101158 | 125495
7 | 27:53.21 | 8:12.34 | 125496 | 162429
8 | 36:05.55 | 4:03.32 | 162430 | 180686
9 | 40:09.12 | 2:32.43 | 180687 | 192129
10 | 42:41.55 | 3:07.47 | 192130 | 206201
11 | 45:49.27 | 6:29.52 | 206202 | 235428
12 | 52:19.04 | 3:46.01 | 235429 | 252379
13 | 56:05.05 | 2:39.09 | 252380 | 264313
14 | 58:44.14 | 2:37.16 | 264314 | 276104
15 | 61:21.30 | 3:56.55 | 276105 | 293859
16 | 65:18.10 | 3:59.00 | 293860 | 311784
17 | 69:17.10 | 3:26.65 | 311785 | 327299
Track 1
Filename C:\EAC Rips\01. Subway Joe - Joe Bataan.wav
Pre-gap length 0:00:02.00
Peak level 96.3 %
Track quality 100.0 %
Test CRC BAE2A1C2
Copy CRC BAE2A1C2
Track not present in AccurateRip database
Copy OK
Track 2
Filename C:\EAC Rips\02. Juanito - Joe Bataan.wav
Pre-gap length 0:00:01.66
Peak level 99.8 %
Track quality 100.0 %
Test CRC AC4CF3E0
Copy CRC AC4CF3E0
Track not present in AccurateRip database
Copy OK
Track 3
Filename C:\EAC Rips\03. Mujer Mia - Joe Bataan.wav
Pre-gap length 0:00:01.66
Peak level 99.8 %
Track quality 100.0 %
Test CRC A47D861B
Copy CRC A47D861B
Track not present in AccurateRip database
Copy OK
Track 4
Filename C:\EAC Rips\04. Nuevo Jala Jala - Joe Bataan.wav
Pre-gap length 0:00:01.66
Peak level 99.8 %
Track quality 100.0 %
Test CRC 1038C3B4
Copy CRC 1038C3B4
Track not present in AccurateRip database
Copy OK
Track 5
Filename C:\EAC Rips\05. Special Girl - Joe Bataan.wav
Pre-gap length 0:00:01.66
Peak level 95.2 %
Track quality 100.0 %
Test CRC DEE85D67
Copy CRC DEE85D67
Track not present in AccurateRip database
Copy OK
Track 6
Filename C:\EAC Rips\06. Ponte En Algo - Joe Bataan.wav
Pre-gap length 0:00:01.66
Peak level 99.8 %
Track quality 100.0 %
Test CRC FB825184
Copy CRC FB825184
Track not present in AccurateRip database
Copy OK
Track 7
Filename C:\EAC Rips\07. Triste - Joe Bataan.wav
Pre-gap length 0:00:01.66
Peak level 99.8 %
Track quality 99.9 %
Test CRC 1EF43331
Copy CRC 1EF43331
Track not present in AccurateRip database
Copy OK
Track 8
Filename C:\EAC Rips\08. Magic Rose - Joe Bataan.wav
Pre-gap length 0:00:01.66
Peak level 98.8 %
Track quality 99.9 %
Test CRC 8FE34B13
Copy CRC 8FE34B13
Track not present in AccurateRip database
Copy OK
Track 9
Filename C:\EAC Rips\09. Gypsy Woman - Joe Bataan.wav
Pre-gap length 0:00:01.66
Peak level 98.9 %
Track quality 100.0 %
Test CRC 422B17CA
Copy CRC 422B17CA
Track not present in AccurateRip database
Copy OK
Track 10
Filename C:\EAC Rips\10. So Fine - Joe Bataan.wav
Pre-gap length 0:00:01.66
Peak level 99.4 %
Track quality 99.9 %
Test CRC BBD070BD
Copy CRC BBD070BD
Track not present in AccurateRip database
Copy OK
Track 11
Filename C:\EAC Rips\11. Fuego - Joe Bataan.wav
Pre-gap length 0:00:01.66
Peak level 99.8 %
Track quality 100.0 %
Test CRC 089556CD
Copy CRC 089556CD
Track not present in AccurateRip database
Copy OK
Track 12
Filename C:\EAC Rips\12. Campesino - Joe Bataan.wav
Pre-gap length 0:00:01.66
Peak level 99.8 %
Track quality 100.0 %
Test CRC E9A3BCD1
Copy CRC E9A3BCD1
Track not present in AccurateRip database
Copy OK
Track 13
Filename C:\EAC Rips\13. Chickie's Trombone - Joe Bataan.wav
Pre-gap length 0:00:01.66
Peak level 99.9 %
Track quality 100.0 %
Test CRC 6CDDF601
Copy CRC 6CDDF601
Track not present in AccurateRip database
Copy OK
Track 14
Filename C:\EAC Rips\14. Too Much Lovin' - Joe Bataan.wav
Pre-gap length 0:00:01.66
Peak level 99.8 %
Track quality 100.0 %
Test CRC 72E864FE
Copy CRC 72E864FE
Track not present in AccurateRip database
Copy OK
Track 15
Filename C:\EAC Rips\15. Sugar Guaguanco - Joe Bataan.wav
Pre-gap length 0:00:01.66
Peak level 99.9 %
Track quality 100.0 %
Test CRC BCDD7221
Copy CRC BCDD7221
Track not present in AccurateRip database
Copy OK
Track 16
Filename C:\EAC Rips\16. Figaro - Joe Bataan.wav
Pre-gap length 0:00:01.66
Peak level 99.9 %
Track quality 100.0 %
Test CRC 6ECE0DBE
Copy CRC 6ECE0DBE
Track not present in AccurateRip database
Copy OK
Track 17
Filename C:\EAC Rips\17. Ordinary Guy - Joe Bataan.wav
Pre-gap length 0:00:01.66
Peak level 99.8 %
Track quality 99.9 %
Test CRC E7EA928C
Copy CRC E7EA928C
Track not present in AccurateRip database
Copy OK
None of the tracks are present in the AccurateRip database
No errors occurred
End of status report
 
Содержание индексной карты (.CUE)
REM GENRE Latin
REM DATE 2001
REM DISCID F3110C11
REM COMMENT "ExactAudioCopy v0.99pb5"
PERFORMER "Joe Bataan"
TITLE "Subway Joe, Gypsy Woman"
FILE "01 - Subway Joe.wav" WAVE
TRACK 01 AUDIO
TITLE "Subway Joe"
PERFORMER "Joe Bataan"
INDEX 01 00:00:00
TRACK 02 AUDIO
TITLE "Juanito"
PERFORMER "Joe Bataan"
INDEX 00 02:57:46
FILE "02 - Juanito.wav" WAVE
INDEX 01 00:00:00
TRACK 03 AUDIO
TITLE "Mujer Mia"
PERFORMER "Joe Bataan"
INDEX 00 05:36:35
FILE "03 - Mujer Mia.wav" WAVE
INDEX 01 00:00:00
TRACK 04 AUDIO
TITLE "Nuevo Jala Jala"
PERFORMER "Joe Bataan"
INDEX 00 05:54:49
FILE "04 - Nuevo Jala Jala.wav" WAVE
INDEX 01 00:00:00
TRACK 05 AUDIO
TITLE "Special Girl"
PERFORMER "Joe Bataan"
INDEX 00 05:00:42
FILE "05 - Special Girl.wav" WAVE
INDEX 01 00:00:00
TRACK 06 AUDIO
TITLE "Ponte en Algo"
PERFORMER "Joe Bataan"
INDEX 00 02:51:11
FILE "06 - Ponte en Algo.wav" WAVE
INDEX 01 00:00:00
TRACK 07 AUDIO
TITLE "Triste"
PERFORMER "Joe Bataan"
INDEX 00 05:22:63
FILE "07 - Triste.wav" WAVE
INDEX 01 00:00:00
TRACK 08 AUDIO
TITLE "Magic Rose"
PERFORMER "Joe Bataan"
INDEX 00 08:10:59
FILE "08 - Magic Rose.wav" WAVE
INDEX 01 00:00:00
TRACK 09 AUDIO
TITLE "Gypsy Woman"
PERFORMER "Joe Bataan"
INDEX 00 04:01:57
FILE "09 - Gypsy Woman.wav" WAVE
INDEX 01 00:00:00
TRACK 10 AUDIO
TITLE "So Fine"
PERFORMER "Joe Bataan"
INDEX 00 02:30:68
FILE "10 - So Fine.wav" WAVE
INDEX 01 00:00:00
TRACK 11 AUDIO
TITLE "Fuego"
PERFORMER "Joe Bataan"
INDEX 00 03:05:72
FILE "11 - Fuego.wav" WAVE
INDEX 01 00:00:00
TRACK 12 AUDIO
TITLE "Campesino"
PERFORMER "Joe Bataan"
INDEX 00 06:28:02
FILE "12 - Campesino.wav" WAVE
INDEX 01 00:00:00
TRACK 13 AUDIO
TITLE "Chickie's Trombone"
PERFORMER "Joe Bataan"
INDEX 00 03:44:26
FILE "13 - Chickie's Trombone.wav" WAVE
INDEX 01 00:00:00
TRACK 14 AUDIO
TITLE "Too Much Lovin'"
PERFORMER "Joe Bataan"
INDEX 00 02:37:34
FILE "14 - Too Much Lovin'.wav" WAVE
INDEX 01 00:00:00
TRACK 15 AUDIO
TITLE "Sugar Guaguanco"
PERFORMER "Joe Bataan"
INDEX 00 02:35:41
FILE "15 - Sugar Guaguanco.wav" WAVE
INDEX 01 00:00:00
TRACK 16 AUDIO
TITLE "Figaro"
PERFORMER "Joe Bataan"
INDEX 00 03:55:05
FILE "16 - Figaro.wav" WAVE
INDEX 01 00:00:00
TRACK 17 AUDIO
TITLE "Ordinary Guy"
PERFORMER "Joe Bataan"
INDEX 00 03:57:25
FILE "17 - Ordinary Guy.wav" WAVE
INDEX 01 00:00:00
 
Отчет CUETools
[CUETools log; Date: 03.06.2017 21:29:53; Version: 2.1.5]
[CTDB TOCID: yUKlmSsac1nT_3AIjAtPAQc5osM-] found.
Track | CTDB Status
1 | (1/1) Accurately ripped
2 | (1/1) Accurately ripped
3 | (1/1) Accurately ripped
4 | (1/1) Accurately ripped
5 | (1/1) Accurately ripped
6 | (1/1) Accurately ripped
7 | (1/1) Accurately ripped
8 | (1/1) Accurately ripped
9 | (1/1) Accurately ripped
10 | (1/1) Accurately ripped
11 | (1/1) Accurately ripped
12 | (1/1) Accurately ripped
13 | (1/1) Accurately ripped
14 | (1/1) Accurately ripped
15 | (1/1) Accurately ripped
16 | (1/1) Accurately ripped
17 | (1/1) Accurately ripped
[AccurateRip ID: 002fd717-02577ee1-f3110c11] found.
Track [ CRC | V2 ] Status
01 [3a7073bc|3bb69be9] (0+1/1) Accurately ripped
02 [a1d245e9|28fb6724] (0+1/1) Accurately ripped
03 [ec8c357e|1d75fc1a] (0+1/1) Accurately ripped
04 [eb1e42c9|0c954f46] (0+1/1) Accurately ripped
05 [87e27c1b|a7f0556a] (0+1/1) Accurately ripped
06 [893ddd41|0e93d88d] (0+1/1) Accurately ripped
07 [ec1e3217|c9674430] (0+1/1) Accurately ripped
08 [bc9499a7|6d0db835] (0+1/1) Accurately ripped
09 [fd9261d9|b230eeac] (0+1/1) Accurately ripped
10 [492f208c|8269d967] (0+1/1) Accurately ripped
11 [17791565|01fab02e] (0+1/1) Accurately ripped
12 [50658289|fb4f703c] (0+1/1) Accurately ripped
13 [6c3e8760|c8e06d39] (0+1/1) Accurately ripped
14 [22455686|b4d4919e] (0+1/1) Accurately ripped
15 [25ed1c7b|7ff07f18] (0+1/1) Accurately ripped
16 [c0b61d4f|6024a834] (0+1/1) Accurately ripped
17 [7e721e03|d7fd5ce2] (0+1/1) Accurately ripped
Track Peak [ CRC32 ] [W/O NULL] [ LOG ]
-- 99,9 [86E3001C] [AA1002ED]
01 96,3 [BAE2A1C2] [9D0AB523] CRC32
02 99,8 [AC4CF3E0] [B7C82121] CRC32
03 99,8 [A47D861B] [EF4AD20A] CRC32
04 99,8 [1038C3B4] [68A7620A] CRC32
05 95,2 [DEE85D67] [BB11F891] CRC32
06 99,8 [FB825184] [C3EA45F2] CRC32
07 99,8 [1EF43331] [72F2577D] CRC32
08 98,8 [8FE34B13] [47B49938] CRC32
09 98,9 [422B17CA] [CF0141F9] CRC32
10 99,4 [BBD070BD] [20447020] CRC32
11 99,8 [089556CD] [DDDBEE36] CRC32
12 99,8 [E9A3BCD1] [40532D48] CRC32
13 99,9 [6CDDF601] [4F6E76F1] CRC32
14 99,8 [72E864FE] [4AC4C942] CRC32
15 99,9 [BCDD7221] [62665BCF] CRC32
16 99,9 [6ECE0DBE] [C51F7CC2] CRC32
17 99,8 [E7EA928C] [0A9B9DD2] CRC32
 
Состав
Joe Bataan - leader, piano, English vocals, arranger
Tito Ramos (#1-8), George "Joe" Pagan (#9-17) - lead Latin vocals
Joe "Chickie" Fuentes, Ruben Hernandez - trombone
Louie Devis - bass
Eddie Nater - timbales
Lorenzo "Chino" Galan (#1-8), Victor Gonzalez (#9-17) - conga
Richie Cortez - bell, coro
Extra Members:
Milton Albino - bongos
Michael Padilla, Louie Gonzalez (#1-8), Tito Morley (#9-17), Ralph Valesquez (#9-17) - coro
00:57
226
Нет комментариев. Ваш будет первым!