Поиск

(Latin Soul, Salsa) [CD] Joe Bataan - Subway Joe - 1968 (2007), FLAC (tracks+.cue), lossless

(Latin Soul, Salsa) [CD] Joe Bataan - Subway Joe - 1968 (2007), FLAC (tracks+.cue), lossless
Joe Bataan - Subway Joe
Жанр: Latin Soul, Salsa
Носитель: CD
Страна-производитель диска (релиза): США
Год издания: 1968 (2007)
Издатель (лейбл): Fania Records
Номер по каталогу: 773 130 113-2
Аудиокодек: FLAC (*.flac)
Тип рипа: tracks+.cue
Битрейт аудио: lossless
Продолжительность: 39:53
Источник (релизер): What.CD
Наличие сканов в содержимом раздачи: да
Треклист:
01. Subway Joe (Bataan) - 2:58
02. Juanito (Bataan) - 5:36
03. Mujer Mia - 5:54
04. Nuevo Jala Jala - 5:01
05. Special Girl - 2:51
06. Ponte en Algo - 5:21
07. Triste - 8:10
08. Magic Rose - 4:02
 
Лог создания рипа
Exact Audio Copy V0.99 prebeta 4 from 23. January 2008
EAC extraction logfile from 30. October 2008, 1:44
Joe Bataan / Subway Joe
Used drive : TDK CDRW5200B Adapter: 1 ID: 1
Read mode : Secure
Utilize accurate stream : Yes
Defeat audio cache : Yes
Make use of C2 pointers : No
Read offset correction : 6
Overread into Lead-In and Lead-Out : No
Fill up missing offset samples with silence : Yes
Delete leading and trailing silent blocks : No
Null samples used in CRC calculations : Yes
Used interface : Native Win32 interface for Win NT & 2000
Gap handling : Appended to previous track
Used output format : Internal WAV Routines
Sample format : 44.100 Hz; 16 Bit; Stereo
TOC of the extracted CD
Track | Start | Length | Start sector | End sector
---------------------------------------------------------
1 | 0:00.00 | 2:57.44 | 0 | 13318
2 | 2:57.44 | 5:35.56 | 13319 | 38499
3 | 8:33.25 | 5:53.44 | 38500 | 65018
4 | 14:26.69 | 5:00.68 | 65019 | 87586
5 | 19:27.62 | 2:50.39 | 87587 | 100375
6 | 22:18.26 | 5:21.31 | 100376 | 124481
7 | 27:39.57 | 8:10.02 | 124482 | 161233
8 | 35:49.59 | 4:01.65 | 161234 | 179373
Track 1
Filename C:\01 - Subway Joe.wav
Pre-gap length 0:00:02.00
Peak level 87.8 %
Track quality 100.0 %
Test CRC 6E40B077
Copy CRC 6E40B077
Copy OK
Track 2
Filename C:\02 - Juanito.wav
Peak level 100.0 %
Track quality 100.0 %
Test CRC 9DE4D38C
Copy CRC 9DE4D38C
Copy OK
Track 3
Filename C:\03 - Mujer Mia.wav
Peak level 99.4 %
Track quality 100.0 %
Test CRC FB159F0E
Copy CRC FB159F0E
Copy OK
Track 4
Filename C:\04 - Nuevo Jala Jala.wav
Peak level 100.0 %
Track quality 100.0 %
Test CRC 854BED8C
Copy CRC 854BED8C
Copy OK
Track 5
Filename C:\05 - Special Girl.wav
Peak level 100.0 %
Track quality 100.0 %
Test CRC 865DA37E
Copy CRC 865DA37E
Copy OK
Track 6
Filename C:\06 - Ponte En ALgo.wav
Peak level 100.0 %
Track quality 99.9 %
Test CRC 3D56C0CB
Copy CRC 3D56C0CB
Copy OK
Track 7
Filename C:\07 - Triste.wav
Peak level 100.0 %
Track quality 100.0 %
Test CRC 5F8FC4C6
Copy CRC 5F8FC4C6
Copy OK
Track 8
Filename C:\08 - Magic Rose.wav
Peak level 100.0 %
Track quality 100.0 %
Test CRC D6BE6C4A
Copy CRC D6BE6C4A
Copy OK
No errors occurred
End of status report
 
Содержание индексной карты (.CUE)
REM GENRE Latin
REM DATE 1968
REM DISCID 64095708
REM COMMENT "ExactAudioCopy v0.99pb4"
PERFORMER "Joe Bataan"
TITLE "Subway Joe"
FILE "01 - Subway Joe.wav" WAVE
TRACK 01 AUDIO
TITLE "Subway Joe"
PERFORMER "Joe Bataan"
INDEX 01 00:00:00
FILE "02 - Juanito.wav" WAVE
TRACK 02 AUDIO
TITLE "Juanito"
PERFORMER "Joe Bataan"
INDEX 01 00:00:00
FILE "03 - Mujer Mia.wav" WAVE
TRACK 03 AUDIO
TITLE "Mujer Mia"
PERFORMER "Joe Bataan"
INDEX 01 00:00:00
FILE "04 - Nuevo Jala Jala.wav" WAVE
TRACK 04 AUDIO
TITLE "Nuevo Jala Jala"
PERFORMER "Joe Bataan"
INDEX 01 00:00:00
FILE "05 - Special Girl.wav" WAVE
TRACK 05 AUDIO
TITLE "Special Girl"
PERFORMER "Joe Bataan"
INDEX 01 00:00:00
FILE "06 - Ponte en Algo.wav" WAVE
TRACK 06 AUDIO
TITLE "Ponte en Algo"
PERFORMER "Joe Bataan"
INDEX 01 00:00:00
FILE "07 - Triste.wav" WAVE
TRACK 07 AUDIO
TITLE "Triste"
PERFORMER "Joe Bataan"
INDEX 01 00:00:00
FILE "08 - Magic Rose.wav" WAVE
TRACK 08 AUDIO
TITLE "Magic Rose"
PERFORMER "Joe Bataan"
INDEX 01 00:00:00
 
Отчет CUETools
[CUETools log; Date: 03.06.2017 20:49:36; Version: 2.1.5]
[CTDB TOCID: SNBqKQFxriQJSX5hLyYf.iw2HfQ-] found.
Track | CTDB Status
1 | (1/1) Accurately ripped
2 | (1/1) Accurately ripped
3 | (1/1) Accurately ripped
4 | (1/1) Accurately ripped
5 | (1/1) Accurately ripped
6 | (1/1) Accurately ripped
7 | (1/1) Accurately ripped
8 | (1/1) Accurately ripped
[AccurateRip ID: 000bbf63-004f9ee2-64095708] found.
Track [ CRC | V2 ] Status
01 [c44ecdd6|61d4ff96] (2+2/4) Accurately ripped
02 [f3cdee92|c6082b1a] (2+2/4) Accurately ripped
03 [4ad505b3|f74c4501] (2+2/4) Accurately ripped
04 [1945149d|6075b10a] (2+2/4) Accurately ripped
05 [e62f1792|ef554718] (2+2/4) Accurately ripped
06 [23f22266|224f9f02] (2+2/4) Accurately ripped
07 [bb50a5f0|06db1c0d] (2+2/4) Accurately ripped
08 [72b56c63|ac500db3] (2+2/4) Accurately ripped
Track Peak [ CRC32 ] [W/O NULL] [ LOG ]
-- 100,0 [D4081144] [77921C11]
01 87,8 [6E40B077] [4D2A798B] CRC32
02 100,0 [9DE4D38C] [6564D62D] CRC32
03 99,4 [FB159F0E] [E29FF55C] CRC32
04 100,0 [854BED8C] [D451D749] CRC32
05 100,0 [865DA37E] [884AD6E5] CRC32
06 100,0 [3D56C0CB] [8D10004A] CRC32
07 100,0 [5F8FC4C6] [AEE4A96F] CRC32
08 100,0 [D6BE6C4A] [9994EFB9] CRC32
 
AllMusic Review by John Storm Roberts
Singer/pianist Bataan was one of the shooting stars of Latin-soul, that moment when the bugalú and the jala jala made it look as though a bilingual, Afro-Latin New Yorican sound might be here to stay. The title cut was one of the hits of the time, but this 1969 release attested that there was more to Bataan than one hit even though he never really got the chance to prove it.
 
Состав
Joe Bataan - piano, leader
Tito Ramos - lead Latin vocals
Joe "Chickie" Fuentes, Ruben Hernandez - trombone
Eddie Nater - timbales
Louie Devies - bass
Richie Cortez - bell-coro
Lorenzo "Chino" Galan - conga
Extra Members:
Milton Albino - bongos
Louie Gonzalez, Michael Padilla - coro
Recorded at Impact Sound Studio.
00:57
294
Нет комментариев. Ваш будет первым!