Поиск

(Latin, MPB) [CD] Maria Bethania - Meus Quintais - 2014, FLAC (tracks+.cue), lossless

(Latin, MPB) [CD] Maria Bethania - Meus Quintais - 2014, FLAC (tracks+.cue), lossless
Треклист:
maria bethâniameus quintais
Жанр: Latin, MPB
Носитель: CD
Страна-производитель диска: Brazil
Год издания: 2014
Издатель (лейбл): Biscoito Fino
Номер по каталогу: BF304-2
Страна: Brazil
Аудиокодек: FLAC (*.flac)
Тип рипа: tracks+.cue
Битрейт аудио: lossless
Продолжительность: 00:42:12
Релизер: golemsonbi
Наличие сканов: из сети
Мария Бетания (Maria Bethânia Vianna Telles Veloso, род. 18.06.1946) - известнейшая бразильская джаз-, самба-певица. Сестра певца, гитариста Каэтану Велозу. Встречайте новый студийный альбом!
 
Треклист
01. Alguma Voz (4:30)
02. Xavante (2:22)
03. Casa de Caboclo (4:07)
04. Lua Bonita (2:04)
05. Candeeiro Velho (2:30)
06. Imbelezô Eu / Vento de La (4:44)
07. Mãe Maria (2:28)
08. Uma Iara / Uma Perigosa Yara (4:16)
09. Moda da Onça (1:54)
10. Povos do Brasil (3:07)
11. Arcos da Velha India (3:10)
12. Folia de Reis (3:47)
13. Dindi (faixa extra) (3:14)
 
Логи
 
EAC
Exact Audio Copy V1.0 beta 3 from 29. August 2011
EAC extraction logfile from 10. June 2014, 23:15
Maria Bethânia / Meus Quintais
Used drive : HL-DT-STDVDRAM GT40N Adapter: 0 ID: 0
Read mode : Secure
Utilize accurate stream : Yes
Defeat audio cache : Yes
Make use of C2 pointers : No
Read offset correction : 103
Overread into Lead-In and Lead-Out : No
Fill up missing offset samples with silence : Yes
Delete leading and trailing silent blocks : No
Null samples used in CRC calculations : Yes
Used interface : Native Win32 interface for Win NT & 2000
Gap handling : Appended to previous track
Used output format : User Defined Encoder
Selected bitrate : 1024 kBit/s
Quality : High
Add ID3 tag : No
Command line compressor : C:\Program Files (x86)\Exact Audio Copy\FLAC\FLAC.EXE
Additional command line options : -8 -V -T "ARTIST=%artist%" -T "TITLE=%title%" -T "ALBUM=%albumtitle%" -T "DATE=%year%" -T "TRACKNUMBER=%tracknr%" -T "GENRE=%genre%" -T "PERFORMER=%albuminterpret%" -T "COMPOSER=%composer%" %haslyrics%--tag-from-file=LYRICS="%lyricsfile%"%haslyrics% -T "ALBUMARTIST=%albumartist%" -T "DISCNUMBER=%cdnumber%" -T "TOTALDISCS=%totalcds%" -T "TOTALTRACKS=%numtracks%" -T "COMMENT=%comment%" %source% -o %dest%
TOC of the extracted CD
Track | Start | Length | Start sector | End sector
---------------------------------------------------------
1 | 0:00.00 | 4:29.72 | 0 | 20246
2 | 4:29.72 | 2:21.50 | 20247 | 30871
3 | 6:51.47 | 4:07.22 | 30872 | 49418
4 | 10:58.69 | 2:04.03 | 49419 | 58721
5 | 13:02.72 | 2:29.74 | 58722 | 69970
6 | 15:32.71 | 4:44.17 | 69971 | 91287
7 | 20:17.13 | 2:27.44 | 91288 | 102356
8 | 22:44.57 | 4:15.73 | 102357 | 121554
9 | 27:00.55 | 1:53.73 | 121555 | 130102
10 | 28:54.53 | 3:06.70 | 130103 | 144122
11 | 32:01.48 | 3:09.64 | 144123 | 158361
12 | 35:11.37 | 3:47.17 | 158362 | 175403
13 | 38:58.54 | 3:13.41 | 175404 | 189919
Track 1
Filename D:\Downloads\Maria Bethânia - Meus Quintais\01 - Alguma Voz.wav
Pre-gap length 0:00:02.00
Peak level 100.0 %
Extraction speed 1.3 X
Track quality 100.0 %
Test CRC B9573651
Copy CRC B9573651
Track not present in AccurateRip database
Copy OK
Track 2
Filename D:\Downloads\Maria Bethânia - Meus Quintais\02 - Xavante.wav
Pre-gap length 0:00:01.55
Peak level 96.7 %
Extraction speed 1.2 X
Track quality 100.0 %
Test CRC B242E349
Copy CRC B242E349
Track not present in AccurateRip database
Copy OK
Track 3
Filename D:\Downloads\Maria Bethânia - Meus Quintais\03 - Casa de Caboclo.wav
Pre-gap length 0:00:00.32
Peak level 93.7 %
Extraction speed 1.3 X
Track quality 99.9 %
Test CRC 781599CD
Copy CRC 781599CD
Track not present in AccurateRip database
Copy OK
Track 4
Filename D:\Downloads\Maria Bethânia - Meus Quintais\04 - Lua Bonita.wav
Pre-gap length 0:00:03.23
Peak level 97.1 %
Extraction speed 1.4 X
Track quality 100.0 %
Test CRC 59C892D0
Copy CRC 59C892D0
Track not present in AccurateRip database
Copy OK
Track 5
Filename D:\Downloads\Maria Bethânia - Meus Quintais\05 - Candeeiro Velho.wav
Pre-gap length 0:00:02.19
Peak level 99.5 %
Extraction speed 1.5 X
Track quality 100.0 %
Test CRC BD23A90D
Copy CRC BD23A90D
Track not present in AccurateRip database
Copy OK
Track 6
Filename D:\Downloads\Maria Bethânia - Meus Quintais\06 - Imbelezô Eu , Vento de Lá.wav
Pre-gap length 0:00:01.17
Peak level 98.1 %
Extraction speed 1.8 X
Track quality 100.0 %
Test CRC B324BFC9
Copy CRC B324BFC9
Track not present in AccurateRip database
Copy OK
Track 7
Filename D:\Downloads\Maria Bethânia - Meus Quintais\07 - Mãe Maria.wav
Pre-gap length 0:00:03.34
Peak level 92.7 %
Extraction speed 1.7 X
Track quality 100.0 %
Test CRC 8F565951
Copy CRC 8F565951
Track not present in AccurateRip database
Copy OK
Track 8
Filename D:\Downloads\Maria Bethânia - Meus Quintais\08 - Uma Iara , Uma Perigosa Yara.wav
Pre-gap length 0:00:01.33
Peak level 97.0 %
Extraction speed 1.7 X
Track quality 99.9 %
Test CRC 3C41BACB
Copy CRC 3C41BACB
Track not present in AccurateRip database
Copy OK
Track 9
Filename D:\Downloads\Maria Bethânia - Meus Quintais\09 - Moda da Onça.wav
Pre-gap length 0:00:02.16
Peak level 99.7 %
Extraction speed 1.7 X
Track quality 100.0 %
Test CRC 3F8EC70A
Copy CRC 3F8EC70A
Track not present in AccurateRip database
Copy OK
Track 10
Filename D:\Downloads\Maria Bethânia - Meus Quintais\10 - Povos do Brasil.wav
Pre-gap length 0:00:01.60
Peak level 98.5 %
Extraction speed 1.9 X
Track quality 100.0 %
Test CRC A1F758E8
Copy CRC A1F758E8
Track not present in AccurateRip database
Copy OK
Track 11
Filename D:\Downloads\Maria Bethânia - Meus Quintais\11 - Arcos da Velha Índia.wav
Pre-gap length 0:00:02.47
Peak level 100.0 %
Extraction speed 2.0 X
Track quality 100.0 %
Test CRC EBF33645
Copy CRC EBF33645
Track not present in AccurateRip database
Copy OK
Track 12
Filename D:\Downloads\Maria Bethânia - Meus Quintais\12 - Folia de Reis.wav
Pre-gap length 0:00:01.15
Peak level 100.0 %
Extraction speed 2.1 X
Track quality 100.0 %
Test CRC CC0060B2
Copy CRC CC0060B2
Track not present in AccurateRip database
Copy OK
Track 13
Filename D:\Downloads\Maria Bethânia - Meus Quintais\13 - Dindi (faixa extra).wav
Pre-gap length 0:00:02.14
Peak level 71.2 %
Extraction speed 1.8 X
Track quality 99.9 %
Test CRC 4166EB28
Copy CRC 4166EB28
Track not present in AccurateRip database
Copy OK
None of the tracks are present in the AccurateRip database
No errors occurred
End of status report
---- CUETools DB Plugin V2.1.3
[CTDB TOCID: xzTIgICuuYI5FavUJOwl9i.IiKE-] disk not present in database, Submit result: xzTIgICuuYI5FavUJOwl9i.IiKE- has been uploaded
==== Log checksum B0A73BDCD4AEFF66896C4EBC58557D5293784D69200FC26212B2E4AD93519F26 ====
 
Индексная карта (.CUE)
REM GENRE MPB
REM DATE 2014
REM DISCID 9B09E40D
REM COMMENT "ExactAudioCopy v1.0b3"
PERFORMER "Maria Bethвnia"
TITLE "Meus Quintais"
FILE "01 - Alguma Voz.wav" WAVE
TRACK 01 AUDIO
TITLE "Alguma Voz"
PERFORMER "Maria Bethвnia"
ISRC BRPUI1400104
INDEX 01 00:00:00
TRACK 02 AUDIO
TITLE "Xavante"
PERFORMER "Maria Bethвnia"
ISRC BRPUI1400113
INDEX 00 04:28:17
FILE "02 - Xavante.wav" WAVE
INDEX 01 00:00:00
TRACK 03 AUDIO
TITLE "Casa de Caboclo"
PERFORMER "Maria Bethвnia"
ISRC BRPUI1400105
INDEX 00 02:21:18
FILE "03 - Casa de Caboclo.wav" WAVE
INDEX 01 00:00:00
TRACK 04 AUDIO
TITLE "Lua Bonita"
PERFORMER "Maria Bethвnia"
ISRC BRPUI1400107
INDEX 00 04:03:74
FILE "04 - Lua Bonita.wav" WAVE
INDEX 01 00:00:00
TRACK 05 AUDIO
TITLE "Candeeiro Velho"
PERFORMER "Maria Bethвnia"
ISRC BRPUI1400108
INDEX 00 02:01:59
FILE "05 - Candeeiro Velho.wav" WAVE
INDEX 01 00:00:00
TRACK 06 AUDIO
TITLE "Imbelezô Eu , Vento de Lá"
PERFORMER "Maria Bethвnia"
ISRC BRPUI1400109
INDEX 00 02:28:57
FILE "06 - Imbelezô Eu , Vento de Lá.wav" WAVE
INDEX 01 00:00:00
TRACK 07 AUDIO
TITLE "Mãe Maria"
PERFORMER "Maria Bethвnia"
ISRC BRPUI1400110
INDEX 00 04:40:58
FILE "07 - Mãe Maria.wav" WAVE
INDEX 01 00:00:00
TRACK 08 AUDIO
TITLE "Uma Iara / Uma Perigosa Yara"
PERFORMER "Maria Bethвnia"
ISRC BRPUI1400111
INDEX 00 02:26:11
FILE "08 - Uma Iara , Uma Perigosa Yara.wav" WAVE
INDEX 01 00:00:00
TRACK 09 AUDIO
TITLE "Moda da Onça"
PERFORMER "Maria Bethвnia"
ISRC BRPUI1400112
INDEX 00 04:13:57
FILE "09 - Moda da Onça.wav" WAVE
INDEX 01 00:00:00
TRACK 10 AUDIO
TITLE "Povos do Brasil"
PERFORMER "Maria Bethвnia"
ISRC BRPUI1400115
INDEX 00 01:52:13
FILE "10 - Povos do Brasil.wav" WAVE
INDEX 01 00:00:00
TRACK 11 AUDIO
TITLE "Arcos da Velha Índia"
PERFORMER "Maria Bethвnia"
ISRC BRPUI1400114
INDEX 00 03:04:23
FILE "11 - Arcos da Velha Índia.wav" WAVE
INDEX 01 00:00:00
TRACK 12 AUDIO
TITLE "Folia de Reis"
PERFORMER "Maria Bethвnia"
ISRC BRPUI1400116
INDEX 00 03:08:49
FILE "12 - Folia de Reis.wav" WAVE
INDEX 01 00:00:00
TRACK 13 AUDIO
TITLE "Dindi (faixa extra)"
PERFORMER "Maria Bethвnia"
ISRC BRPUI1400117
INDEX 00 03:45:03
FILE "13 - Dindi (faixa extra).wav" WAVE
INDEX 01 00:00:00
 
Folder.auCDtect
-----------------------
DON'T MODIFY THIS FILE
-----------------------
PERFORMER: auCDtect Task Manager, ver. 1.6.0 RC1 build 1.6.0.1
Copyright (c) 2008-2010 y-soft. All rights reserved
http://y-soft.org
ANALYZER: auCDtect: CD records authenticity detector, version 0.8.2
Copyright (c) 2004 Oleg Berngardt. All rights reserved.
Copyright (c) 2004 Alexander Djourik. All rights reserved.
FILE: 13 - Dindi (faixa extra).flac
Size: 15833107 Hash: E698F8F91BC9E522D8F481FE915F75DA Accuracy: -m0
Conclusion: CDDA 100%
Signature: D181D1C9ED8ED2E77EA3813B14681EB88AF7640D
FILE: 12 - Folia de Reis.flac
Size: 27634890 Hash: D2F9D07D0BF460FA50463649746B120C Accuracy: -m0
Conclusion: CDDA 100%
Signature: D94999F6C05A3DDB6A09D6E545E21F54670466A3
FILE: 11 - Arcos da Velha Índia.flac
Size: 19353563 Hash: 9425A40EDAAA4B8B19C83815C2468999 Accuracy: -m0
Conclusion: CDDA 100%
Signature: A3ABC4B63A8EAB3DFBB816F14F1C74457C9CFE5D
FILE: 10 - Povos do Brasil.flac
Size: 19656197 Hash: DCF459BAD4B670C32D299EDA5732B72C Accuracy: -m0
Conclusion: CDDA 100%
Signature: EBD57CE38F2343427903CD6356D7F74EE90A04F5
FILE: 09 - Moda da Onça.flac
Size: 10519364 Hash: 41CFBF92B5BA667104D40CCBDACE7873 Accuracy: -m0
Conclusion: CDDA 100%
Signature: D5E3AD8E1266A7E24981530332076E874E11242F
FILE: 08 - Uma Iara , Uma Perigosa Yara.flac
Size: 22006151 Hash: B51667D33113E23727AC0FC3AB3FD72B Accuracy: -m0
Conclusion: CDDA 100%
Signature: 8115ACB94E468A6E7DDD7A56144D59D46DC6A477
FILE: 07 - Mãe Maria.flac
Size: 12381677 Hash: 2C0755938F0B1B61291F5A00C38EC95B Accuracy: -m0
Conclusion: CDDA 100%
Signature: 5265DE6A569271F8EC96B5FBC3B19678692B69D6
FILE: 06 - Imbelezô Eu , Vento de Lá.flac
Size: 29990791 Hash: 4D7D4E408073C360357AC8A6DD377E94 Accuracy: -m0
Conclusion: CDDA 99%
Signature: 60C6DB115E81E9206CB54BE89F749602C867E959
FILE: 05 - Candeeiro Velho.flac
Size: 16904202 Hash: 71C8F6E722465488CA835794511E6406 Accuracy: -m0
Conclusion: CDDA 100%
Signature: DB287E637900ECB2A0B4ACF1DE14531E631BC4B4
FILE: 04 - Lua Bonita.flac
Size: 10994277 Hash: 45D9B50BBAF4EFC41BA411B8D639BF2F Accuracy: -m0
Conclusion: CDDA 100%
Signature: EE4D187D8AB1F3B5943BEB0A30FDFB26A143B121
FILE: 03 - Casa de Caboclo.flac
Size: 21085761 Hash: A6E7409D704E1C700349368286001DDE Accuracy: -m0
Conclusion: CDDA 100%
Signature: 1984DA5C123AD5ED1E31D84CB062305CE9C36CB7
FILE: 02 - Xavante.flac
Size: 12609055 Hash: 3AA72B87F52B50D55062D36DED3E6AF6 Accuracy: -m0
Conclusion: CDDA 100%
Signature: 68BFF1560D5E9729C21BC02651DF55A60C567DB0
FILE: 01 - Alguma Voz.flac
Size: 20119647 Hash: 928BD0668B9E6C639C5CF6CC0A52CDA5 Accuracy: -m0
Conclusion: CDDA 100%
Signature: 138C61E943D080051FE1C312815CE76D067A26CA
 
Доп. информация
Релиз полностью готов к воспроизведению в аудиоплеере (я ориентировался на foobar2000)При скачивании, если необходимо, переименуйте папку, в которой будет находиться альбомБольшая просьба к скачавшим поддерживать раздачу! Помогайте другим, ведь вам тоже может понадобиться помощь!Не забываем говорить "Спасибо"!Комментарии приветствуются!
16:06
478
Нет комментариев. Ваш будет первым!