Поиск

(Afro-Cuban Latin Jazz, Post-Bop) [CD] Roberto Fonseca - Temperamento - 2004, FLAC (tracks+.cue), lossless

(Afro-Cuban Latin Jazz, Post-Bop) [CD] Roberto Fonseca - Temperamento - 2004, FLAC (tracks+.cue), lossless
Треклист:
Roberto Fonseca / Temperamento
Жанр: Afro-Cuban Latin Jazz, Post-Bop
Носитель: CD
Страна-производитель диска: Andorra
Год издания: 2004
Издатель (лейбл): Disconforme / Yemaya
Номер по каталогу: YY 9430
Страна: Cuba
Аудиокодек: FLAC (*.flac)
Тип рипа: tracks+.cue
Битрейт аудио: lossless
Продолжительность: 01:07:04
Источник (релизер): вата (благодарности - fuzzfolk)
Наличие сканов в содержимом раздачи: нет
Треклист:
1. Yeyeo
2. Igbae
3. Moyubbeo
4. 70's
5. Negra Mia
6. Annet Marina
7. Temperamento
8. Tiene Que Ver
9. Para Que No Hables
10. De Regreso
11. Over the Rainbow
12. Temperamento
Доп. информация: http://www.robertofonseca.com
 
Лог создания рипа
Exact Audio Copy V1.0 beta 3 from 29. August 2011
EAC extraction logfile from 3. April 2013, 14:03
Roberto Fonseca / Temperamento
Used drive : HL-DT-STDVD+-RW GA11N Adapter: 0 ID: 1
Read mode : Secure
Utilize accurate stream : Yes
Defeat audio cache : Yes
Make use of C2 pointers : No
Read offset correction : 667
Overread into Lead-In and Lead-Out : No
Fill up missing offset samples with silence : Yes
Delete leading and trailing silent blocks : No
Null samples used in CRC calculations : Yes
Used interface : Native Win32 interface for Win NT & 2000
Gap handling : Appended to previous track
Used output format : User Defined Encoder
Selected bitrate : 896 kBit/s
Quality : High
Add ID3 tag : No
Command line compressor : C:\Program Files (x86)\Exact Audio Copy\Flac\flac.exe
Additional command line options : -V -8 -T "artist=%artist%" -T "title=%title%" -T "album=%albumtitle%" -T "date=%year%" -T "tracknumber=%tracknr%" -T "genre=%genre%" %source%
TOC of the extracted CD
Track | Start | Length | Start sector | End sector
---------------------------------------------------------
1 | 0:00.00 | 6:19.37 | 0 | 28461
2 | 6:19.37 | 5:27.16 | 28462 | 53002
3 | 11:46.53 | 1:04.15 | 53003 | 57817
4 | 12:50.68 | 4:53.42 | 57818 | 79834
5 | 17:44.35 | 8:49.49 | 79835 | 119558
6 | 26:34.09 | 4:01.00 | 119559 | 137633
7 | 30:35.09 | 7:19.20 | 137634 | 170578
8 | 37:54.29 | 2:08.58 | 170579 | 180236
9 | 40:03.12 | 8:28.28 | 180237 | 218364
10 | 48:31.40 | 8:40.15 | 218365 | 257379
11 | 57:11.55 | 6:09.65 | 257380 | 285119
12 | 63:21.45 | 3:42.41 | 285120 | 301810
Track 1
Filename C:\EACrips\Roberto Fonseca - 2004 - Temperamento\01 - Yeyeo.wav
Pre-gap length 0:00:02.00
Peak level 100.0 %
Extraction speed 2.6 X
Track quality 100.0 %
Test CRC 244E1209
Copy CRC 244E1209
Accurately ripped (confidence 3) [B9B5E81C] (AR v1)
Copy OK
Track 2
Filename C:\EACrips\Roberto Fonseca - 2004 - Temperamento\02 - Igbae.wav
Peak level 100.0 %
Extraction speed 3.4 X
Track quality 100.0 %
Test CRC FECE0BDC
Copy CRC FECE0BDC
Accurately ripped (confidence 3) [8A588620] (AR v1)
Copy OK
Track 3
Filename C:\EACrips\Roberto Fonseca - 2004 - Temperamento\03 - Moyubbeo.wav
Peak level 32.8 %
Extraction speed 2.6 X
Track quality 100.0 %
Test CRC 54E11FB2
Copy CRC 54E11FB2
Accurately ripped (confidence 3) [559B8AF6] (AR v1)
Copy OK
Track 4
Filename C:\EACrips\Roberto Fonseca - 2004 - Temperamento\04 - 70's.wav
Peak level 100.0 %
Extraction speed 3.8 X
Track quality 100.0 %
Test CRC 64D0B652
Copy CRC 64D0B652
Accurately ripped (confidence 3) [7B75AE1B] (AR v1)
Copy OK
Track 5
Filename C:\EACrips\Roberto Fonseca - 2004 - Temperamento\05 - Negra Mía.wav
Peak level 99.9 %
Extraction speed 4.4 X
Track quality 100.0 %
Test CRC EFE882FE
Copy CRC EFE882FE
Accurately ripped (confidence 3) [388549FA] (AR v1)
Copy OK
Track 6
Filename C:\EACrips\Roberto Fonseca - 2004 - Temperamento\06 - Anner Marina.wav
Peak level 99.9 %
Extraction speed 3.7 X
Track quality 99.9 %
Test CRC 6154B08E
Copy CRC 6154B08E
Accurately ripped (confidence 3) [74BC5DF2] (AR v1)
Copy OK
Track 7
Filename C:\EACrips\Roberto Fonseca - 2004 - Temperamento\07 - Temperamento.wav
Peak level 99.9 %
Extraction speed 4.9 X
Track quality 100.0 %
Test CRC 339CB92F
Copy CRC 339CB92F
Accurately ripped (confidence 3) [885EC160] (AR v1)
Copy OK
Track 8
Filename C:\EACrips\Roberto Fonseca - 2004 - Temperamento\08 - Tiene Que Ver.wav
Peak level 84.1 %
Extraction speed 3.3 X
Track quality 99.9 %
Test CRC A90622E0
Copy CRC A90622E0
Accurately ripped (confidence 3) [89440E17] (AR v1)
Copy OK
Track 9
Filename C:\EACrips\Roberto Fonseca - 2004 - Temperamento\09 - Para Que No Hables.wav
Peak level 100.0 %
Extraction speed 2.8 X
Track quality 100.0 %
Test CRC 50520ECD
Copy CRC 50520ECD
Accurately ripped (confidence 3) [6949E227] (AR v1)
Copy OK
Track 10
Filename C:\EACrips\Roberto Fonseca - 2004 - Temperamento\10 - De Regreso.wav
Peak level 100.0 %
Extraction speed 3.7 X
Track quality 99.9 %
Test CRC 095DD901
Copy CRC 095DD901
Accurately ripped (confidence 3) [41EA2425] (AR v1)
Copy OK
Track 11
Filename C:\EACrips\Roberto Fonseca - 2004 - Temperamento\11 - Over The Rainbow.wav
Peak level 100.0 %
Extraction speed 3.7 X
Track quality 99.9 %
Test CRC 2663C865
Copy CRC 2663C865
Accurately ripped (confidence 3) [1EF68933] (AR v1)
Copy OK
Track 12
Filename C:\EACrips\Roberto Fonseca - 2004 - Temperamento\12 - Temperamento (Remix).wav
Peak level 99.9 %
Extraction speed 3.9 X
Track quality 100.0 %
Test CRC DF7554FF
Copy CRC DF7554FF
Accurately ripped (confidence 3) [2D5C9F25] (AR v1)
Copy OK
All tracks accurately ripped
No errors occurred
End of status report
---- CUETools DB Plugin V2.1.3
[CTDB TOCID: J424_b0J0X76dVmJAg3_Ie1OVsE-] found, Submit result: J424_b0J0X76dVmJAg3_Ie1OVsE- has been confirmed
[f7721515] (2/2) Accurately ripped
==== Log checksum 9A20D450EE15AD4CCE48C0E27FC5ED98B26F9F3E5A6EAE0CC47D3FACD58CB932 ====
 
Содержание индексной карты (.CUE_edit)
REM GENRE Jazz
REM DATE 2004
REM DISCID A80FB80C
REM COMMENT "ExactAudioCopy v1.0b3"
PERFORMER "Roberto Fonseca"
TITLE "Temperamento"
FILE "01 - Yeyeo.flac" WAVE
TRACK 01 AUDIO
TITLE "Yeyeo"
PERFORMER "Roberto Fonseca"
INDEX 01 00:00:00
FILE "02 - Igbae.flac" WAVE
TRACK 02 AUDIO
TITLE "Igbae"
PERFORMER "Roberto Fonseca"
INDEX 01 00:00:00
FILE "03 - Moyubbeo.flac" WAVE
TRACK 03 AUDIO
TITLE "Moyubbeo"
PERFORMER "Roberto Fonseca"
INDEX 01 00:00:00
FILE "04 - 70's.flac" WAVE
TRACK 04 AUDIO
TITLE "70's"
PERFORMER "Roberto Fonseca"
INDEX 01 00:00:00
FILE "05 - Negra Mia.flac" WAVE
TRACK 05 AUDIO
TITLE "Negra Mia"
PERFORMER "Roberto Fonseca"
INDEX 01 00:00:00
FILE "06 - Anner Marina.flac" WAVE
TRACK 06 AUDIO
TITLE "Anner Marina"
PERFORMER "Roberto Fonseca"
INDEX 01 00:00:00
FILE "07 - Temperamento.flac" WAVE
TRACK 07 AUDIO
TITLE "Temperamento"
PERFORMER "Roberto Fonseca"
INDEX 01 00:00:00
FILE "08 - Tiene Que Ver.flac" WAVE
TRACK 08 AUDIO
TITLE "Tiene Que Ver"
PERFORMER "Roberto Fonseca"
INDEX 01 00:00:00
FILE "09 - Para Que No Hables.flac" WAVE
TRACK 09 AUDIO
TITLE "Para Que No Hables"
PERFORMER "Roberto Fonseca"
INDEX 01 00:00:00
FILE "10 - De Regreso.flac" WAVE
TRACK 10 AUDIO
TITLE "De Regreso"
PERFORMER "Roberto Fonseca"
INDEX 01 00:00:00
FILE "11 - Over The Rainbow.flac" WAVE
TRACK 11 AUDIO
TITLE "Over The Rainbow"
PERFORMER "Roberto Fonseca"
INDEX 01 00:00:00
FILE "12 - Temperamento (Remix).flac" WAVE
TRACK 12 AUDIO
TITLE "Temperamento (Remix)"
PERFORMER "Roberto Fonseca"
INDEX 01 00:00:00
 
Содержание индексной карты (.CUE)
REM GENRE Jazz
REM DATE 2004
REM DISCID A80FB80C
REM COMMENT "ExactAudioCopy v1.0b3"
PERFORMER "Roberto Fonseca"
TITLE "Temperamento"
FILE "01 - Yeyeo.flac" WAVE
TRACK 01 AUDIO
TITLE "Yeyeo"
PERFORMER "Roberto Fonseca"
INDEX 01 00:00:00
FILE "02 - Igbae.flac" WAVE
TRACK 02 AUDIO
TITLE "Igbae"
PERFORMER "Roberto Fonseca"
INDEX 01 00:00:00
FILE "03 - Moyubbeo.flac" WAVE
TRACK 03 AUDIO
TITLE "Moyubbeo"
PERFORMER "Roberto Fonseca"
INDEX 01 00:00:00
FILE "04 - 70's.flac" WAVE
TRACK 04 AUDIO
TITLE "70's"
PERFORMER "Roberto Fonseca"
INDEX 01 00:00:00
FILE "05 - Negra Mнa.flac" WAVE
TRACK 05 AUDIO
TITLE "Negra Mнa"
PERFORMER "Roberto Fonseca"
INDEX 01 00:00:00
FILE "06 - Anner Marina.flac" WAVE
TRACK 06 AUDIO
TITLE "Anner Marina"
PERFORMER "Roberto Fonseca"
INDEX 01 00:00:00
FILE "07 - Temperamento.flac" WAVE
TRACK 07 AUDIO
TITLE "Temperamento"
PERFORMER "Roberto Fonseca"
INDEX 01 00:00:00
FILE "08 - Tiene Que Ver.flac" WAVE
TRACK 08 AUDIO
TITLE "Tiene Que Ver"
PERFORMER "Roberto Fonseca"
INDEX 01 00:00:00
FILE "09 - Para Que No Hables.flac" WAVE
TRACK 09 AUDIO
TITLE "Para Que No Hables"
PERFORMER "Roberto Fonseca"
INDEX 01 00:00:00
FILE "10 - De Regreso.flac" WAVE
TRACK 10 AUDIO
TITLE "De Regreso"
PERFORMER "Roberto Fonseca"
INDEX 01 00:00:00
FILE "11 - Over The Rainbow.flac" WAVE
TRACK 11 AUDIO
TITLE "Over The Rainbow"
PERFORMER "Roberto Fonseca"
INDEX 01 00:00:00
FILE "12 - Temperamento (Remix).flac" WAVE
TRACK 12 AUDIO
TITLE "Temperamento (Remix)"
PERFORMER "Roberto Fonseca"
INDEX 01 00:00:00
 
Об исполнителе
Roberto Fonseca (born 1975, Havana) is a Cuban jazz pianist. From an early age, Fonseca was surrounded by music: his father was a drummer, his mother, Mercedes Cortes Alfaro, a professional singer (she sings on her son's most recent solo album, Zamazu), and his two older half-brothers, Emilio Valdés (drums) and Jesús "Chuchito" Valdés Jr. (piano), are also two young musicians of great international prestige.
After an early interest in drums, Fonseca switched to piano at the age of 8, and by 14 was experimenting with fusing American jazz and traditional Cuban rhythms; he appeared at Havana's Jazz Plaza Festival in 1991 when he was just 15.
Fonseca studied at Cuba's prestigious Instituto Superior de Arte, where he obtained a master's degree in composition, even though he often says that he was a really bad student. After earning his degree, he left Cuba to find his sound.
His first album, En El Comienzo, which he recorded with Javier Zalba and the group Temperamento, was awarded Cuba's Best Jazz Album in 1999. This success encouraged him to work on two solo records: Tiene Que Ver and Elengo, combining Latin jazz, drum and bass, hip-hop, urban music and Afro-Cuban rhythms.
In 2001, Fonseca went to Japan to record No Limit: Afro Cuban Jazz. He also toured with the Buena Vista Social Club the same year and has worked with Rubén González, Ibrahim Ferrer, Cachaito, Guajiro Mirabal and Manuel Galbán.
A Buena Vista Social Club tour spanned the world, with over 400 concerts, promoting Ibrahim Ferrer's records next to great legends such as Cachaíto López, Manuel Guajiro Mirabal and Manuel Galbán, among others, and playing at the most prestigious venues, such as the Frankfurt Alte Oper, Palais des Congrès (Paris), Albert Hall (London), Beacon Theatre (New York), and the Sydney Opera House (Australia). Not a single review of Ibrahim's concerts, from South America to Asia, would fail to mention Fonseca's talent and his magnetic stage presence.
That period of intense work, touring round the world, led Fonseca to realise that his music was ready for creating his own project. He dug deep to compose each of the songs that form Zamazu, the result of the integration of all his influences: Afro-Cuban music, jazz, classical music and traditional Cuban music.
In the words of one reviewer, his recording, Zamazu, is "a deftly varied and well-sequenced set that leaves a strong impression of who Fonseca is and promises plenty for the future."
2008 was a year full of work and experiences that have inspired Fonseca's new compositions, one being Columbia Pictures choosing the track "Llego Cachaito" from the Zamazu album for the Will Smith film Hancock.
With his 2009 album, Akokan, Fonseca wanted to bring the magic, strength and improvisation from a live show to the studio. With a quartet formation and accompanied by his band, the one that he had been playing with for the past 12 years, Fonseca as the record's producer encouraged creativity and chemistry amongst the musicians.
There are also two very special collaborations from artists that Fonseca admires, artists that have very different styles: Mayra Andrade, the Cape Verdean singer who wrote the words and sings on "Siete potencias", and Raul Midón, the American guitarist, who wrote "Second Chance". On this track Fonseca did the arrangements and Midon accompanied him on guitar.
In 2010 Fonseca was the support act for Omara Portuondo's USA. After the summer his album Roberto Fonseca Live in Marciac was released. It includes a bonus DVD which features footage of the festival's 2009 show.
http://en.wikipedia.org/wiki/Roberto_Fonseca
 
Об альбоме
Despite his youth, Roberto Fonseca is a resounding and vigorous reality in the current world of Cuban piano artistry, and he has been so for a long time now. This present work, which our company has the pleasure of presenting, contains eleven themes (plus one standard) of his creation that will function as an irresistible letter of introduction.
 
Состав
Roberto Fonseca - Piano, Arranger, Composer, Musical Direction, Producer
Javier Zalba - Clarinet, Flute, Sax (Baritone), Sax (Soprano)
Carlos Fernandez - Saxophone
Emilio DelMonte Valdés - Cuban Percussion
Yosvany Verdecia - Percussion
Emilio DelMonte, Jr. - Choir/Chorus, Percussion
Daniel Alejandro - Vocals
Magdalena Lopez Vocals
Alexei Rodriguez Vocals
16:06
625
Нет комментариев. Ваш будет первым!