Поиск

(Latin Jazz/World Fusion) Michel Camilo - Live At The Blue Note - 2003, APE (image+.cue), lossless

(Latin Jazz/World Fusion) Michel Camilo - Live At The Blue Note - 2003, APE (image+.cue), lossless
Треклист:
Michel Camilo - Live At The Blue Note
Жанр: Latin Jazz/World Fusion
Recording Date: Mar 19, 2003-Mar 22, 2003
Год выпуска диска: Aug 26, 2003
Производитель диска: U.S.A.
Label: Telarc Distribution
Аудио кодек: APE
Тип рипа: image+.cue
Битрейт аудио: lossless
Продолжительность: 1:07:12 + 1:09:55
Источник: нонэйм, автор: barin99
Трэклист:
1. Cocowalk 6:12
2. Two of a Kind 6:53
3. Hello & Goodbye 8:42
4. The Magic in You 9:02
5. Tequila 4:50
6. Dichotomy 7:58
7. Twilight Glow 8:43
8. Happy Birthday/Blue Bossa 3:53
9. This Way Out 10:56
10. On the Other Hand 6:42
11. Mongo's Blues 6:52
12. Thinking of You 9:09
13. At Night (To Frank) 6:14
14. Why Not! 8:26
15. Silent Talk 6:29
16. See You Later 6:22
17. And Sammy Walked In 6:35
18. On Fire 13:02
__________________________
Музыканты:
Michel Camilo — Piano
Charles Flores — Bass
Horacio Hernández — Percussion, Drums
Live At The Blue Note - это первый "живой" альбом Camilo. Альбом вышел в августе 2003 на двух CD и состоит в основном из произведений маэстро, которые были записаны вместе с бассистом Charles Flores и постоянным барабанщиком Camilo Horacio "El Negro" Hernandez.
 
...немного о Микеле Камило:
Микель Камило родился и вырос в музыкальной семье, в одной из самых типичных стран «третьего мира» - Доминиканской Республике, где люди живут на 15 долларов в месяц и само слово «джаз» знакомо считанным людям.
Микель очень рано начал играть на аккордеоне, в возрасте 9 (!!!) лет он поступил в Национальную Консерваторию Санто Доминго, закончил ее в 14 лет и переключился на фортепиано, а в 16 лет стал самым молодым солистом Национального Симфонического Оркестра Доминиканской республики.
Увлекшись джазом, и достигнув своего потолка в родной стране, в 1979 году, 24-летним юношей, Камило приехал в Нью-Йорк. Здесь поначалу он был еще одним не известным никому музыкантом, без гроша в кармане, одержимый одним желанием – играть джаз. В Нью-Йорке Микель заканчивает Mannes колледж и всемирно известную школу Джульярда. На следующий год после своего приезда он создает свой первый бэнд и уже через год становится знаменитостью латиноамериканской диаспоры джазменов. Он начинает выступать с оркестром Тито Пуэнте, играть на сцене в Бродвейском мюзикле Боба Фосси «Dancin’».
Через четыре года после появления в Нью-Йорке Микель записывает свою первую пластинку и дает первый сольный концерт в Карнеги Холле. С этого момента карьера Микеля Камило только идет по восходящей, не переставая быть образцом для подражания молодыми музыкантами. Сегодня, будучи профессором нескольких университетов и Академий, имея все возможные и невозможные премии и награды, Камило все так же выступает в клубах и на концертах почти ежедневно, и все так же видеть его на сцене – потрясение и сшибающий с ног шквал эмоций и страстей.
В чем же секрет Микеля Камило? Почему его так боготворят и восхищаются?
Прежде всего – за высочайший профессионализм в своем деле. Камило – виртуоз из виртуозов. Он – недостижимо техничен, его пианизм сам по себе уникален. Так играть даже чисто технически могут очень не многие. В музыке, на самом деле техника – это далеко не все, но определенный технический уровень просто необходим. Как бы лиричен и мелодичен музыкант не был, для свободы исполнения, раскованности, и точности выражения своей мысли он должен быть техничен. Музыкант может не показывать своей техники, но «запас прочности» у него должен быть. У Камило этот запас заоблачно высок. Каждый раз, когда слушаешь его записи или видишь его живьем, сердце заходится в испуге. Все время кажется, что вот он сейчас не сможет закончить пассаж и «слетит», но этого никогда не происходит. Его исполнение очень напоминает мне гитаристов фламенко: всегда страстно, всегда на пределе возможностей, всегда отдавая себя на 150%.
Концертные выступления Микеля Камило – это нечто непостижимое! Он настолько страстен и растворен в музыке, насколько слит со своим роялем, что это неизбежно передается в зал, и зрители всегда, с первых же нот попадают в водоворот цунами летящего со сцены. На концертах Камило не бывает равнодушных, не бывает людей, покидающих концерт от скуки. Услышав первые аккорды, зал соединяется в музыкантом и начинает «жить» тем, что играет им Микель.
Камило всегда играет исключительно на рояле. Никогда не использует синтезаторов, электропиано, электрооргана или электронных струнных. Всю свою жизнь Камило имеет свой оркестр, для которого пишет музыку, сам же ее аранжирует и исполняет. Он – любитель чистых звуков оркестра, без всякой примеси электроники, к которой не испытывает ни любви, ни ненависти. Он ее просто не знает и никогда не использует. С одной стороны, Камило продолжает традиции бэнд-лидеров, типа Каунт Бэйзи или Дюка Эллингтона. С другой стороны, его музыка имеет ярко-выраженную латиноамериканскую и карибскую базу, и его лидирующая функция в оркестре скорее исполнительская, чем дирижерская. Микель Камило сам – человек-оркестр, и видеть и слышать его настолько захватывающе, что про оркестр нередко просто забываешь.
Источник: http://rutracker.org/forum/viewtopic.php?t=261919
 
EAC log CD1:
Exact Audio Copy V0.99 prebeta 4 from 23. January 2008
EAC extraction logfile from 12. February 2010, 20:33
Michel Camilo / Live At The Blue Note CD1
Used drive : HL-DT-STRW/DVD GCC-4242N Adapter: 1 ID: 0
Read mode : Secure
Utilize accurate stream : Yes
Defeat audio cache : Yes
Make use of C2 pointers : No
Read offset correction : 102
Overread into Lead-In and Lead-Out : No
Fill up missing offset samples with silence : Yes
Delete leading and trailing silent blocks : No
Null samples used in CRC calculations : Yes
Used interface : Native Win32 interface for Win NT & 2000
Used output format : Internal WAV Routines
Sample format : 44.100 Hz; 16 Bit; Stereo
TOC of the extracted CD
Track | Start | Length | Start sector | End sector
---------------------------------------------------------
1 | 0:00.00 | 6:12.09 | 0 | 27908
2 | 6:12.09 | 6:53.37 | 27909 | 58920
3 | 13:05.46 | 8:42.48 | 58921 | 98118
4 | 21:48.19 | 9:02.28 | 98119 | 138796
5 | 30:50.47 | 4:50.06 | 138797 | 160552
6 | 35:40.53 | 7:58.07 | 160553 | 196409
7 | 43:38.60 | 8:43.39 | 196410 | 235673
8 | 52:22.24 | 3:53.21 | 235674 | 253169
9 | 56:15.45 | 10:56.41 | 253170 | 302410
Range status and errors
Selected range
Filename C:\_\EAC_Out\Out\Michel Camilo - Live At The Blue Note CD1\Michel Camilo - Live At The Blue Note CD1.wav
Peak level 99.9 %
Range quality 100.0 %
Copy CRC D520084C
Copy OK
No errors occurred
AccurateRip summary
Track 1 accurately ripped (confidence 18) [B963CF60]
Track 2 accurately ripped (confidence 18) [0497683A]
Track 3 accurately ripped (confidence 17) [F5B754A4]
Track 4 accurately ripped (confidence 18) [D65ED47C]
Track 5 accurately ripped (confidence 18) [BC6FBD5B]
Track 6 accurately ripped (confidence 18) [10776E16]
Track 7 accurately ripped (confidence 18) [07352023]
Track 8 accurately ripped (confidence 18) [817305EA]
Track 9 accurately ripped (confidence 18) [11C9ACF1]
All tracks accurately ripped
End of status report
 
EAC log CD2:
Exact Audio Copy V0.99 prebeta 4 from 23. January 2008
EAC extraction logfile from 12. February 2010, 20:55
Michel Camilo / Live At The Blue Note CD2
Used drive : HL-DT-STRW/DVD GCC-4242N Adapter: 1 ID: 0
Read mode : Secure
Utilize accurate stream : Yes
Defeat audio cache : Yes
Make use of C2 pointers : No
Read offset correction : 102
Overread into Lead-In and Lead-Out : No
Fill up missing offset samples with silence : Yes
Delete leading and trailing silent blocks : No
Null samples used in CRC calculations : Yes
Used interface : Native Win32 interface for Win NT & 2000
Used output format : Internal WAV Routines
Sample format : 44.100 Hz; 16 Bit; Stereo
TOC of the extracted CD
Track | Start | Length | Start sector | End sector
---------------------------------------------------------
1 | 0:00.00 | 6:42.31 | 0 | 30180
2 | 6:42.31 | 6:52.68 | 30181 | 61148
3 | 13:35.24 | 9:09.07 | 61149 | 102330
4 | 22:44.31 | 6:14.45 | 102331 | 130425
5 | 28:59.01 | 8:26.52 | 130426 | 168427
6 | 37:25.53 | 6:29.57 | 168428 | 197659
7 | 43:55.35 | 6:22.17 | 197660 | 226326
8 | 50:17.52 | 6:35.25 | 226327 | 255976
9 | 56:53.02 | 13:02.57 | 255977 | 314683
Range status and errors
Selected range
Filename C:\_\EAC_Out\Out\Michel Camilo - Live At The Blue Note CD2\Michel Camilo - Live At The Blue Note CD2.wav
Peak level 99.9 %
Range quality 100.0 %
Copy CRC 58F4D852
Copy OK
No errors occurred
AccurateRip summary
Track 1 accurately ripped (confidence 17) [9CD058AB]
Track 2 accurately ripped (confidence 17) [ED079511]
Track 3 accurately ripped (confidence 17) [890F0F7B]
Track 4 accurately ripped (confidence 17) [E6442C73]
Track 5 accurately ripped (confidence 16) [7BCDA757]
Track 6 accurately ripped (confidence 17) [5246D2DE]
Track 7 accurately ripped (confidence 17) [B2FE1644]
Track 8 accurately ripped (confidence 17) [3653179A]
Track 9 accurately ripped (confidence 17) [7ECEE1E6]
All tracks accurately ripped
End of status report
12:48
292
Нет комментариев. Ваш будет первым!