Поиск

(Ethnic jazz, Folk) Theodosii Spassov - Titla - 2003, APE (image+.cue), lossless

(Ethnic jazz, Folk) Theodosii Spassov - Titla - 2003, APE (image+.cue), lossless
Треклист:

Theodosii Spassov - Titla
Жанр: Ethnic jazz, Folk
Год выпуска диска: 2003
Производитель диска: Болгария
Аудио кодек: APE
Тип рипа: image+.cue
Битрейт аудио: lossless
Продолжительность: 61,21 min
Трэклист:
1. Shake It, Gergina
2. Straldja Rachenitsa - traditional
3. In the President’s Bedroom
4. Oh Those Years - traditional
5. At the Carding – Frame in Kubrat
6. Levochevski Patatnik
7. Share – room Brothers
8. the Mountain Got Dark - traditional
9. Titla (Tropanka)
10.You Bird, You Nightingale
11. Wood-Nymph Dance
12. Duckling Soup
13. Little Sun
14. Our Horo
15. Cradle Over the Sea
16. Yanka Karakachanka
17. In the Pigsty
18. When I Was a Shepherd - traditional
Теодосий Спасов (кавал) и Никола Илиев (кларнет) - легендарные исполнители современной болгарской народной музыки. Теодосий известен своими опытами с экспериментальной музыкой, сочетающей элементы болгарского фольклора, джаза, классического и популярного стилей. Никола известен как участник народного театра "Свадебные оркестры".
 
Отчёт EAC
Exact Audio Copy V0.99 prebeta 5 from 4. May 2009
Отчёт EAC об извлечении, выполненном 26. февраля 2010, 22:29
Theodosii Spassov / Titla
Дисковод: HL-DT-STDVDRAM GSA-T20N Adapter: 1 ID: 0
Режим чтения : Достоверность
Использование точного потока : Да
Отключение кэша аудио : Да
Использование указателей C2 : Нет
Коррекция смещения при чтении : 667
Способность читать области Lead-in и Lead-out : Нет
Заполнение пропущенных сэмплов тишиной : Да
Удаление блоков с тишиной в начале и конце : Нет
При вычислениях CRC использовались нулевые сэмплы : Да
Интерфейс : Установленный внешний ASPI-интерфейс
Выходной формат : Внутренние WAV-операции
Формат сэмплов : 44.100 Гц; 16 бит; стерео
TOC извлечённого CD
Трек | Старт | Длительность | Начальный сектор | Конечный сектор
---------------------------------------------------------------------
1 | 0:00.00 | 2:18.21 | 0 | 10370
2 | 2:18.21 | 1:42.15 | 10371 | 18035
3 | 4:00.36 | 4:44.26 | 18036 | 39361
4 | 8:44.62 | 4:19.50 | 39362 | 58836
5 | 13:04.37 | 5:08.22 | 58837 | 81958
6 | 18:12.59 | 2:48.42 | 81959 | 94600
7 | 21:01.26 | 6:33.44 | 94601 | 124119
8 | 27:34.70 | 1:59.01 | 124120 | 133045
9 | 29:33.71 | 2:31.26 | 133046 | 144396
10 | 32:05.22 | 3:15.54 | 144397 | 159075
11 | 35:21.01 | 2:41.01 | 159076 | 171151
12 | 38:02.02 | 3:41.04 | 171152 | 187730
13 | 41:43.06 | 1:52.70 | 187731 | 196200
14 | 43:36.01 | 5:49.13 | 196201 | 222388
15 | 49:25.14 | 3:39.26 | 222389 | 238839
16 | 53:04.40 | 3:21.66 | 238840 | 253980
17 | 56:26.31 | 3:06.54 | 253981 | 267984
18 | 59:33.10 | 1:55.18 | 267985 | 276627
Характеристики диапазона извлечения и сообщения об ошибках
Выбранный диапазон
Имя файла C:\Documents and Settings\User\Рабочий стол\Новая папка\Theodosii Spassov - Titla.wav
Пиковый уровень 98.4 %
Качество диапазона 100.0 %
CRC копии 55A61DF7
Копирование... OK
Ошибок не произошло
Конец отчёта

По всем вопросам пишите личное сообщение пользователю M0p94ok.
11:47
191
Нет комментариев. Ваш будет первым!