Поиск

(Latin Jazz/Tango) Astor Piazzolla - Original Artist/Original Songs (2 CD) - 2005, FLAC (image+.cue), lossless

(Latin Jazz/Tango) Astor Piazzolla - Original Artist/Original Songs (2 CD) - 2005, FLAC (image+.cue), lossless
Треклист:
Astor Piazzolla - Original Artist/Original Songs
Жанр: Latin Jazz/Tango
Год выпуска диска: 2005
Производитель диска: EU, Promo sound LTD with licensed by Eagle Rock Entertrainment LTD
Аудио кодек: FLAC
Тип рипа: image+.cue+cover
Битрейт аудио: lossless
Продолжительность: CD1 - 1:13:25; CD2 - 1:10:14
Трэклист:
CD1:
01. [4:12] Libertango
02. [6:40] Milonga Del Angel
03. [3:03] La Muerte Del Angel
04. [6:41] Resurreccion Del Angel
05. [6:12] Biyuya
06. [3:32] Revirado
07. [16:05] Tristeza De Un Doble "A
08. [6:31] Verano Porteno
09. [9:45] Mumuki
10. [6:28] Chin Chin
11. [2:43] Decarisimo
12. [1:33] Presentacion: Astor Piazzolla
Astor Piazzolla y su Quinteto • Astor Piazzolla: bandoneon - Pablo Zeigler: piano - Oscar Lopez Ruiz: guitara el.
- Fernando Suarez Paz: violin - Hector Console: contrabajo.• Milano, teatro Nazionale, 15 octubre 1984
CD2:
01. [8:19] Adios Noniimo
02. [5:39] Lunfardo
03. [3:24] Escualo
04. [4:43] Caliente
05. [3:41] Fuga Y Misterio
06. [5:31] Zum
07. [5:43] Buenos Aires Hora Cero
08. [6:29] Vardarito
09. [6:12] Onda Nueve
10. [5:58] Divertimento Nueve
11. [7:06] Preludio Nueve
12. [7:29] Mufa Sesenta Y Dos
01-04 Astor Piazzolla y su Quinteto • Astor Piazzolla: bandoneon - Pablo Zeigler: piano - Oscar Lopez Ruiz: guitara el.
- Fernando Suarez Paz: violin - Hector Console: contrabajo.• Milano, teatro Nazionale, 15 octubre 1984
05-12 Astor Piazzolla y su Noneto • Astor Pazzolla: bandoneon - Osvaldo Tarantino:piano - Antonio Agri: 1° violin -
Hugo Baralis: 2° violin - Nestor Panik: viola - Jose Bragato: cello - Kicho Diaz: contrabajo - Oscar Lopez Ruiz: guitara el. -
Jose Correale: percussion • Roma, 17 Abril, 1972
Доп. информация:
Астор Пьяццолла (исп. Astor Piazzolla; 11 марта 1921 — 4 июля 1992) — выдающийся аргентинский музыкант и композитор
второй половины двадцатого столетия, чьи сочинения в корне перевернули традиционное танго, представив его в
современном ключе, вобравшем элементы джаза и классической музыки. Родоначальник стиля, получившего название
нуэво танго (nuevo tango). Пьяццолла также известен как непревзойдённый мастер игры на бандонеоне; свои
произведения он часто исполнял с различными музыкальными коллективами. На родине в Аргентине он известен как «El
Gran Astor» («Великий Астор»).
 
EAC LOG CD1
Exact Audio Copy V0.99 prebeta 4 from 23. January 2008
EAC extraction logfile from 13. September 2009, 8:46
Astor Piazzolla / Original Artist
Used drive : ASUS DRW-2014S1T Adapter: 3 ID: 0
Read mode : Secure
Utilize accurate stream : Yes
Defeat audio cache : Yes
Make use of C2 pointers : No
Read offset correction : 6
Overread into Lead-In and Lead-Out : No
Fill up missing offset samples with silence : Yes
Delete leading and trailing silent blocks : No
Null samples used in CRC calculations : Yes
Used interface : Installed external ASPI interface
Used output format : Internal WAV Routines
Sample format : 44.100 Hz; 16 Bit; Stereo
TOC of the extracted CD
Track | Start | Length | Start sector | End sector
---------------------------------------------------------
1 | 0:00.01 | 4:12.45 | 1 | 18945
2 | 4:12.46 | 6:40.46 | 18946 | 48991
3 | 10:53.17 | 3:03.51 | 48992 | 62767
4 | 13:56.68 | 6:41.25 | 62768 | 92867
5 | 20:38.18 | 6:12.13 | 92868 | 120780
6 | 26:50.31 | 3:32.05 | 120781 | 136685
7 | 30:22.36 | 16:05.64 | 136686 | 209124
8 | 46:28.25 | 6:31.35 | 209125 | 238484
9 | 52:59.60 | 9:45.67 | 238485 | 282426
10 | 62:45.52 | 6:28.13 | 282427 | 311539
11 | 69:13.65 | 2:43.00 | 311540 | 323764
12 | 71:56.65 | 1:33.56 | 323765 | 330795
Range status and errors
Selected range
Filename D:\Downloads\TRAK\Astor Piazzolla\Original Artist\CD1\Astor Piazzolla - Original Artist CD1.wav
Peak level 100.0 %
Range quality 100.0 %
Copy CRC AD18D853
Copy OK
No errors occurred
AccurateRip summary
Track 1 accurately ripped (confidence 1) [913802F8]
Track 2 accurately ripped (confidence 1) [2172A7B2]
Track 3 accurately ripped (confidence 1) [1BBA0A33]
Track 4 accurately ripped (confidence 1) [79095C43]
Track 5 accurately ripped (confidence 1) [AC941837]
Track 6 accurately ripped (confidence 1) [829E14C7]
Track 7 accurately ripped (confidence 1) [6D0DDE7B]
Track 8 accurately ripped (confidence 1) [E2952619]
Track 9 accurately ripped (confidence 1) [D9705AF9]
Track 10 accurately ripped (confidence 1) [EC6553BB]
Track 11 accurately ripped (confidence 1) [D21B3630]
Track 12 accurately ripped (confidence 1) [0496F00A]
All tracks accurately ripped
End of status report
 
CUE CD1
REM GENRE "Free Jazz/Nuevo Tango"
REM DATE 2005
REM DISCID A5113A0C
REM COMMENT "ExactAudioCopy v0.99pb4"
PERFORMER "Astor Piazzolla"
TITLE "Original Artist"
FILE "Astor Piazzolla - Original Artist CD1.wav" WAVE
TRACK 01 AUDIO
TITLE "Libertango"
PERFORMER "Astor Piazzolla"
INDEX 00 00:00:00
INDEX 01 00:00:01
TRACK 02 AUDIO
TITLE "Milonga Del Angel"
PERFORMER "Astor Piazzolla"
INDEX 01 04:12:46
TRACK 03 AUDIO
TITLE "La Muerte Del Angel"
PERFORMER "Astor Piazzolla"
INDEX 01 10:53:17
TRACK 04 AUDIO
TITLE "Resurreccion Del Angel"
PERFORMER "Astor Piazzolla"
INDEX 01 13:56:68
TRACK 05 AUDIO
TITLE "Biyuya"
PERFORMER "Astor Piazzolla"
INDEX 01 20:38:18
TRACK 06 AUDIO
TITLE "Revirado"
PERFORMER "Astor Piazzolla"
INDEX 01 26:50:31
TRACK 07 AUDIO
TITLE "Tristeza De Un Doble 'A"
PERFORMER "Astor Piazzolla"
INDEX 01 30:22:36
TRACK 08 AUDIO
TITLE "Verano Porteno"
PERFORMER "Astor Piazzolla"
INDEX 01 46:28:25
TRACK 09 AUDIO
TITLE "Mumuki"
PERFORMER "Astor Piazzolla"
INDEX 01 52:59:60
TRACK 10 AUDIO
TITLE "Chin Chin"
PERFORMER "Astor Piazzolla"
INDEX 01 62:45:52
TRACK 11 AUDIO
TITLE "Decarisimo"
PERFORMER "Astor Piazzolla"
INDEX 01 69:13:65
TRACK 12 AUDIO
TITLE "Presentacion: Astor Piazzolla"
PERFORMER "Astor Piazzolla"
INDEX 01 71:56:65
 
EAC LOG CD2
Exact Audio Copy V0.99 prebeta 4 from 23. January 2008
EAC extraction logfile from 13. September 2009, 9:04
Astor Piazzolla / Original Artist
Used drive : ASUS DRW-2014S1T Adapter: 3 ID: 0
Read mode : Secure
Utilize accurate stream : Yes
Defeat audio cache : Yes
Make use of C2 pointers : No
Read offset correction : 6
Overread into Lead-In and Lead-Out : No
Fill up missing offset samples with silence : Yes
Delete leading and trailing silent blocks : No
Null samples used in CRC calculations : Yes
Used interface : Installed external ASPI interface
Used output format : Internal WAV Routines
Sample format : 44.100 Hz; 16 Bit; Stereo
TOC of the extracted CD
Track | Start | Length | Start sector | End sector
---------------------------------------------------------
1 | 0:00.01 | 8:19.32 | 1 | 37457
2 | 8:19.33 | 5:39.48 | 37458 | 62930
3 | 13:59.06 | 3:24.32 | 62931 | 78262
4 | 17:23.38 | 4:43.28 | 78263 | 99515
5 | 22:06.66 | 3:41.32 | 99516 | 116122
6 | 25:48.23 | 5:31.36 | 116123 | 140983
7 | 31:19.59 | 5:43.36 | 140984 | 166744
8 | 37:03.20 | 6:29.73 | 166745 | 195992
9 | 43:33.18 | 6:12.20 | 195993 | 223912
10 | 49:45.38 | 5:58.26 | 223913 | 250788
11 | 55:43.64 | 7:06.45 | 250789 | 282783
12 | 62:50.34 | 7:29.19 | 282784 | 316477
Range status and errors
Selected range
Filename D:\Downloads\TRAK\Astor Piazzolla\Original Artist\CD2\Astor Piazzolla - Original Artist CD2.wav
Peak level 100.0 %
Range quality 100.0 %
Copy CRC 3D8D1CEF
Copy OK
No errors occurred
AccurateRip summary
Track 1 accurately ripped (confidence 1) [2F7EB889]
Track 2 accurately ripped (confidence 1) [C4E07A0F]
Track 3 accurately ripped (confidence 1) [8E1B74FD]
Track 4 accurately ripped (confidence 1) [5ED785F8]
Track 5 accurately ripped (confidence 1) [B3E4FC46]
Track 6 accurately ripped (confidence 1) [808B516C]
Track 7 accurately ripped (confidence 1) [EB2C3028]
Track 8 accurately ripped (confidence 1) [24EC2C7A]
Track 9 accurately ripped (confidence 1) [1A3F87F1]
Track 10 accurately ripped (confidence 1) [E668B6D4]
Track 11 accurately ripped (confidence 1) [D96913CE]
Track 12 accurately ripped (confidence 1) [220438CF]
All tracks accurately ripped
End of status report
 
CUE CD2
REM GENRE "Free Jazz/Nuevo Tango"
REM DATE 2005
REM DISCID 9F107B0C
REM COMMENT "ExactAudioCopy v0.99pb4"
PERFORMER "Astor Piazzolla"
TITLE "Original Artist"
FILE "Astor Piazzolla - Original Artist CD2.wav" WAVE
TRACK 01 AUDIO
TITLE "Adios Noniimo"
PERFORMER "Astor Piazzolla"
FLAGS DCP
INDEX 00 00:00:00
INDEX 01 00:00:01
TRACK 02 AUDIO
TITLE "Lunfardo"
PERFORMER "Astor Piazzolla"
FLAGS DCP
INDEX 01 08:19:33
TRACK 03 AUDIO
TITLE "Escualo"
PERFORMER "Astor Piazzolla"
FLAGS DCP
INDEX 01 13:59:06
TRACK 04 AUDIO
TITLE "Caliente"
PERFORMER "Astor Piazzolla"
FLAGS DCP
INDEX 01 17:23:38
TRACK 05 AUDIO
TITLE "Fuga Y Misterio"
PERFORMER "Astor Piazzolla"
FLAGS DCP
INDEX 01 22:06:66
TRACK 06 AUDIO
TITLE "Zum"
PERFORMER "Astor Piazzolla"
FLAGS DCP
INDEX 01 25:48:23
TRACK 07 AUDIO
TITLE "Buenos Aires Hora Cero"
PERFORMER "Astor Piazzolla"
FLAGS DCP
INDEX 01 31:19:59
TRACK 08 AUDIO
TITLE "Vardarito"
PERFORMER "Astor Piazzolla"
FLAGS DCP
INDEX 01 37:03:20
TRACK 09 AUDIO
TITLE "Onda Nueve"
PERFORMER "Astor Piazzolla"
FLAGS DCP
INDEX 01 43:33:18
TRACK 10 AUDIO
TITLE "Divertimento Nueve"
PERFORMER "Astor Piazzolla"
FLAGS DCP
INDEX 01 49:45:38
TRACK 11 AUDIO
TITLE "Preludio Nueve"
PERFORMER "Astor Piazzolla"
FLAGS DCP
INDEX 01 55:43:64
TRACK 12 AUDIO
TITLE "Mufa Sesenta Y Dos"
PERFORMER "Astor Piazzolla"
FLAGS DCP
INDEX 01 62:50:34

 
сканы

Не забудьте сказать «Спасибо»
По всем вопросам пишите личное сообщение пользователю M0p94ok.
07:55
283
Нет комментариев. Ваш будет первым!