Поиск

(Chamber Music, Latin Jazz) Laurindo Almeida - The Concord Jazz Heritage Series - 1998, FLAC (image+.cue), lossless

(Chamber Music, Latin Jazz) Laurindo Almeida - The Concord Jazz Heritage Series - 1998, FLAC (image+.cue), lossless
Треклист:
Laurindo Almeida - The Concord Jazz Heritage Series
Жанр: Chamber Music, Latin Jazz
Год выпуска диска: 1998
Производитель диска: USA
Label: Concord Jazz
Аудио кодек: FLAC
Тип рипа: image+.cue
Битрейт аудио: lossless
Продолжительность: 59:36
Трэклист:
[01] Dingue Le Bangue [04:15]
from "Chamber Jazz"
[02] Liza [02:48]
from "Artistry in Rhythm"
[03] Carioca [03:46]
from "Brazilian soul" with Charlie Byrd
[04] Te Amo [02:41]
from "Artistry in Rhythm"
[05] Chopin A La Breve [04:10]
from "Chamber Jazz"
[06] Jalousie [03:20]
from "Tango" with Charlie Byrd
[07] You And I (Voce E Eu) [05:13]
from "Chamber Jazz"
[08] Danza Five [05:23]
from "Outra Vez"
[09] Invocation To Shango [04:11]
from "Music of the Brazilian Masters" with Carlos Barbosa-Lima and Charlie Byrd
[10] Slaughter On The Tenth Avenue [03:24]
from "Artistry in Rhythm"
[11] Unaccustomed Bach [07:18]
from "Chamber Jazz"
[12] Escadoo [03:46]
from "Outra Vez"
[13] Adios [03:01]
from "Latin Odyssey" with Charlie Byrd
[14] First Concerto For Guitar And Orchestra (Moderato) [06:20]
from " First Concerto for Guitar and Orchestra" with the Los Angelos Orchestra de Camera
Доп. информация:
 
LogFile
Exact Audio Copy V0.99 prebeta 4 from 23. January 2008
EAC extraction logfile from 12. September 2008, 15:36
Laurindo Almeida / Concord Jazz Heritage Series
Used drive : PLEXTOR DVDR PX-755A Adapter: 1 ID: 0
Read mode : Secure
Utilize accurate stream : Yes
Defeat audio cache : Yes
Make use of C2 pointers : No
Read offset correction : 30
Overread into Lead-In and Lead-Out : No
Fill up missing offset samples with silence : Yes
Delete leading and trailing silent blocks : No
Null samples used in CRC calculations : Yes
Used interface : Installed external ASPI interface
Used output format : User Defined Encoder
Selected bitrate : 768 kBit/s
Quality : High
Add ID3 tag : No
Command line compressor : C:\Program Files\Exact Audio Copy\FLAC\FLAC.EXE
Additional command line options : -7 -V -T "ARTIST=%a" -T "TITLE=%t" -T "ALBUM=%g" -T "DATE=%y" -T "TRACKNUMBER=%n" -T "GENRE=%m" -T "COMMENT=%e" %s -o %d
TOC of the extracted CD
Track | Start | Length | Start sector | End sector
---------------------------------------------------------
1 | 0:00.00 | 4:15.15 | 0 | 19139
2 | 4:15.15 | 2:48.05 | 19140 | 31744
3 | 7:03.20 | 3:45.72 | 31745 | 48691
4 | 10:49.17 | 2:41.00 | 48692 | 60766
5 | 13:30.17 | 4:10.00 | 60767 | 79516
6 | 17:40.17 | 3:20.03 | 79517 | 94519
7 | 21:00.20 | 5:13.00 | 94520 | 117994
8 | 26:13.20 | 5:22.72 | 117995 | 142216
9 | 31:36.17 | 4:11.00 | 142217 | 161041
10 | 35:47.17 | 3:24.03 | 161042 | 176344
11 | 39:11.20 | 7:18.00 | 176345 | 209194
12 | 46:29.20 | 3:46.02 | 209195 | 226146
13 | 50:15.22 | 3:01.03 | 226147 | 239724
14 | 53:16.25 | 6:20.45 | 239725 | 268269
Range status and errors
Selected range
Filename \\Server\E\Music\_Свои раздачи_\Laurindo Almeida - Concord Jazz Heritage Series\Laurindo Almeida - Concord Jazz Heritage Series.wav
Peak level 99.9 %
Range quality 100.0 %
Copy CRC C21EF5DA
Copy OK
No errors occurred
AccurateRip summary
Track 1 not present in database
Track 2 not present in database
Track 3 not present in database
Track 4 not present in database
Track 5 not present in database
Track 6 not present in database
Track 7 not present in database
Track 8 not present in database
Track 9 not present in database
Track 10 not present in database
Track 11 not present in database
Track 12 not present in database
Track 13 not present in database
Track 14 not present in database
None of the tracks are present in the AccurateRip database
End of status report
Есть высококачественные сканы.
Убедительная просьба не сваливать с раздачи!
Приятного прослушивания!
Давайте уважать труд этих замечательных людей - релизеров! Ведь они: рипят диски, сжимают их, сканят обложки, оформляют раздачи! И за все это им нужно лишь Ваше "Спаcибо!".
Download available for power users only.
07:55
312
Нет комментариев. Ваш будет первым!